  0
SECTION
  2
HEADER
  9
$ACADVER
  1
AC1015
  9
$ACADMAINTVER
 70
    20
  9
$DWGCODEPAGE
  3
ANSI_932
  9
$INSBASE
 10
0.0
 20
0.0
 30
0.0
  9
$EXTMIN
 10
11.32180615464005
 20
-6.907882136197371
 30
0.0
  9
$EXTMAX
 10
404.0000199999999
 20
276.99998
 30
0.0
  9
$LIMMIN
 10
0.0
 20
0.0
  9
$LIMMAX
 10
12.0
 20
9.0
  9
$ORTHOMODE
 70
     1
  9
$REGENMODE
 70
     1
  9
$FILLMODE
 70
     1
  9
$QTEXTMODE
 70
     0
  9
$MIRRTEXT
 70
     1
  9
$LTSCALE
 40
1.0
  9
$ATTMODE
 70
     1
  9
$TEXTSIZE
 40
3.0
  9
$TRACEWID
 40
0.05
  9
$TEXTSTYLE
  7
STANDARD
  9
$CLAYER
  8
0
  9
$CELTYPE
  6
CONTINUOUS
  9
$CECOLOR
 62
     3
  9
$CELTSCALE
 40
1.0
  9
$DISPSILH
 70
     0
  9
$DIMSCALE
 40
1.0
  9
$DIMASZ
 40
3.0
  9
$DIMEXO
 40
3.0
  9
$DIMDLI
 40
7.0
  9
$DIMRND
 40
0.0
  9
$DIMDLE
 40
0.0
  9
$DIMEXE
 40
2.0
  9
$DIMTP
 40
0.2
  9
$DIMTM
 40
0.2
  9
$DIMTXT
 40
3.0
  9
$DIMCEN
 40
1.0
  9
$DIMTSZ
 40
0.0
  9
$DIMTOL
 70
     0
  9
$DIMLIM
 70
     0
  9
$DIMTIH
 70
     0
  9
$DIMTOH
 70
     0
  9
$DIMSE1
 70
     0
  9
$DIMSE2
 70
     0
  9
$DIMTAD
 70
     1
  9
$DIMZIN
 70
     8
  9
$DIMBLK
  1

  9
$DIMASO
 70
     1
  9
$DIMSHO
 70
     1
  9
$DIMPOST
  1

  9
$DIMAPOST
  1

  9
$DIMALT
 70
     0
  9
$DIMALTD
 70
     2
  9
$DIMALTF
 40
25.4
  9
$DIMLFAC
 40
1.0
  9
$DIMTOFL
 70
     1
  9
$DIMTVP
 40
0.0
  9
$DIMTIX
 70
     0
  9
$DIMSOXD
 70
     0
  9
$DIMSAH
 70
     1
  9
$DIMBLK1
  1
OPEN
  9
$DIMBLK2
  1
OPEN
  9
$DIMSTYLE
  2
STANDARD
  9
$DIMCLRD
 70
     4
  9
$DIMCLRE
 70
     4
  9
$DIMCLRT
 70
     7
  9
$DIMTFAC
 40
0.75
  9
$DIMGAP
 40
1.0
  9
$DIMJUST
 70
     0
  9
$DIMSD1
 70
     0
  9
$DIMSD2
 70
     0
  9
$DIMTOLJ
 70
     2
  9
$DIMTZIN
 70
     8
  9
$DIMALTZ
 70
     0
  9
$DIMALTTZ
 70
     0
  9
$DIMUPT
 70
     0
  9
$DIMDEC
 70
     4
  9
$DIMTDEC
 70
     4
  9
$DIMALTU
 70
     2
  9
$DIMALTTD
 70
     2
  9
$DIMTXSTY
  7
STANDARD
  9
$DIMAUNIT
 70
     0
  9
$DIMADEC
 70
     0
  9
$DIMALTRND
 40
0.0
  9
$DIMAZIN
 70
     0
  9
$DIMDSEP
 70
    46
  9
$DIMATFIT
 70
     3
  9
$DIMFRAC
 70
     0
  9
$DIMLDRBLK
  1
OPEN
  9
$DIMLUNIT
 70
     2
  9
$DIMLWD
 70
    -2
  9
$DIMLWE
 70
    -2
  9
$DIMTMOVE
 70
     0
  9
$LUNITS
 70
     2
  9
$LUPREC
 70
     4
  9
$SKETCHINC
 40
0.1
  9
$FILLETRAD
 40
6.0
  9
$AUNITS
 70
     0
  9
$AUPREC
 70
     0
  9
$MENU
  1
acad
  9
$ELEVATION
 40
0.0
  9
$PELEVATION
 40
0.0
  9
$THICKNESS
 40
0.0
  9
$LIMCHECK
 70
     0
  9
$CHAMFERA
 40
0.0
  9
$CHAMFERB
 40
0.0
  9
$CHAMFERC
 40
0.0
  9
$CHAMFERD
 40
0.0
  9
$SKPOLY
 70
     0
  9
$TDCREATE
 40
2450571.401945833
  9
$TDUCREATE
 40
2450571.026945834
  9
$TDUPDATE
 40
2457912.780432569
  9
$TDUUPDATE
 40
2457912.405432570
  9
$TDINDWG
 40
9.9691447454
  9
$TDUSRTIMER
 40
9.9691443866
  9
$USRTIMER
 70
     1
  9
$ANGBASE
 50
0.0
  9
$ANGDIR
 70
     0
  9
$PDMODE
 70
     0
  9
$PDSIZE
 40
0.0
  9
$PLINEWID
 40
0.0
  9
$SPLFRAME
 70
     0
  9
$SPLINETYPE
 70
     6
  9
$SPLINESEGS
 70
     8
  9
$HANDSEED
  5
11DC7
  9
$SURFTAB1
 70
     6
  9
$SURFTAB2
 70
     6
  9
$SURFTYPE
 70
     6
  9
$SURFU
 70
     6
  9
$SURFV
 70
     6
  9
$UCSBASE
  2

  9
$UCSNAME
  2

  9
$UCSORG
 10
0.0
 20
0.0
 30
0.0
  9
$UCSXDIR
 10
1.0
 20
0.0
 30
0.0
  9
$UCSYDIR
 10
0.0
 20
1.0
 30
0.0
  9
$UCSORTHOREF
  2

  9
$UCSORTHOVIEW
 70
     0
  9
$UCSORGTOP
 10
0.0
 20
0.0
 30
0.0
  9
$UCSORGBOTTOM
 10
0.0
 20
0.0
 30
0.0
  9
$UCSORGLEFT
 10
0.0
 20
0.0
 30
0.0
  9
$UCSORGRIGHT
 10
0.0
 20
0.0
 30
0.0
  9
$UCSORGFRONT
 10
0.0
 20
0.0
 30
0.0
  9
$UCSORGBACK
 10
0.0
 20
0.0
 30
0.0
  9
$PUCSBASE
  2

  9
$PUCSNAME
  2

  9
$PUCSORG
 10
0.0
 20
0.0
 30
0.0
  9
$PUCSXDIR
 10
1.0
 20
0.0
 30
0.0
  9
$PUCSYDIR
 10
0.0
 20
1.0
 30
0.0
  9
$PUCSORTHOREF
  2

  9
$PUCSORTHOVIEW
 70
     0
  9
$PUCSORGTOP
 10
0.0
 20
0.0
 30
0.0
  9
$PUCSORGBOTTOM
 10
0.0
 20
0.0
 30
0.0
  9
$PUCSORGLEFT
 10
0.0
 20
0.0
 30
0.0
  9
$PUCSORGRIGHT
 10
0.0
 20
0.0
 30
0.0
  9
$PUCSORGFRONT
 10
0.0
 20
0.0
 30
0.0
  9
$PUCSORGBACK
 10
0.0
 20
0.0
 30
0.0
  9
$USERI1
 70
     0
  9
$USERI2
 70
     0
  9
$USERI3
 70
     0
  9
$USERI4
 70
     0
  9
$USERI5
 70
     0
  9
$USERR1
 40
0.0
  9
$USERR2
 40
0.0
  9
$USERR3
 40
0.0
  9
$USERR4
 40
0.0
  9
$USERR5
 40
0.0
  9
$WORLDVIEW
 70
     1
  9
$SHADEDGE
 70
     3
  9
$SHADEDIF
 70
    70
  9
$TILEMODE
 70
     0
  9
$MAXACTVP
 70
    16
  9
$PINSBASE
 10
0.0
 20
0.0
 30
0.0
  9
$PLIMCHECK
 70
     0
  9
$PEXTMIN
 10
44.23787106163078
 20
-37.7828934785146
 30
0.0
  9
$PEXTMAX
 10
464.2378710616307
 20
259.2171065214854
 30
0.0
  9
$PLIMMIN
 10
44.15870238430076
 20
-37.79881447518054
  9
$PLIMMAX
 10
464.3170275796133
 20
259.2330153588038
  9
$UNITMODE
 70
     0
  9
$VISRETAIN
 70
     0
  9
$PLINEGEN
 70
     0
  9
$PSLTSCALE
 70
     1
  9
$TREEDEPTH
 70
  3020
  9
$CMLSTYLE
  2
STANDARD
  9
$CMLJUST
 70
     0
  9
$CMLSCALE
 40
1.0
  9
$PROXYGRAPHICS
 70
     1
  9
$MEASUREMENT
 70
     1
  9
$CELWEIGHT
370
    -1
  9
$ENDCAPS
280
     0
  9
$JOINSTYLE
280
     0
  9
$LWDISPLAY
290
     0
  9
$INSUNITS
 70
     0
  9
$HYPERLINKBASE
  1

  9
$STYLESHEET
  1
ACLT.CTB
  9
$XEDIT
290
     1
  9
$CEPSNTYPE
380
     0
  9
$PSTYLEMODE
290
     1
  9
$FINGERPRINTGUID
  2
{80420BC8-F140-11D4-861C-005004B71BA0}
  9
$VERSIONGUID
  2
{C03B12F5-D650-45E0-BA6D-08D895C0F57D}
  9
$EXTNAMES
290
     1
  9
$PSVPSCALE
 40
0.0
  9
$OLESTARTUP
290
     0
  0
ENDSEC
  0
SECTION
  2
CLASSES
  0
CLASS
  1
ACDBDICTIONARYWDFLT
  2
AcDbDictionaryWithDefault
  3
ObjectDBX Classes
 90
        0
280
     0
281
     0
  0
CLASS
  1
ACDBPLACEHOLDER
  2
AcDbPlaceHolder
  3
ObjectDBX Classes
 90
        0
280
     0
281
     0
  0
CLASS
  1
LAYOUT
  2
AcDbLayout
  3
ObjectDBX Classes
 90
        0
280
     0
281
     0
  0
CLASS
  1
DICTIONARYVAR
  2
AcDbDictionaryVar
  3
ObjectDBX Classes
 90
        0
280
     0
281
     0
  0
CLASS
  1
MATERIAL
  2
AcDbMaterial
  3
ObjectDBX Classes
 90
        0
280
     0
281
     0
  0
CLASS
  1
VISUALSTYLE
  2
AcDbVisualStyle
  3
ObjectDBX Classes
 90
     4095
280
     0
281
     0
  0
CLASS
  1
TABLESTYLE
  2
AcDbTableStyle
  3
ObjectDBX Classes
 90
     4095
280
     0
281
     0
  0
CLASS
  1
SCALE
  2
AcDbScale
  3
ObjectDBX Classes
 90
     1153
280
     0
281
     0
  0
CLASS
  1
MLEADERSTYLE
  2
AcDbMLeaderStyle
  3
ACDB_MLEADERSTYLE_CLASS
 90
     4095
280
     0
281
     0
  0
CLASS
  1
ACDBSECTIONVIEWSTYLE
  2
AcDbSectionViewStyle
  3
ObjectDBX Classes
 90
     1025
280
     0
281
     0
  0
CLASS
  1
ACDBDETAILVIEWSTYLE
  2
AcDbDetailViewStyle
  3
ObjectDBX Classes
 90
     1025
280
     0
281
     0
  0
CLASS
  1
CELLSTYLEMAP
  2
AcDbCellStyleMap
  3
ObjectDBX Classes
 90
     1152
280
     0
281
     0
  0
ENDSEC
  0
SECTION
  2
TABLES
  0
TABLE
  2
VPORT
  5
8
330
0
100
AcDbSymbolTable
 70
     1
  0
VPORT
  5
117FB
330
8
100
AcDbSymbolTableRecord
100
AcDbViewportTableRecord
  2
*Active
 70
     0
 10
0.0
 20
0.0
 11
1.0
 21
1.0
 12
521.205884341809
 22
200.9576273750895
 13
0.0
 23
0.0
 14
1.0
 24
1.0
 15
0.0
 25
0.0
 16
0.0
 26
0.0
 36
1.0
 17
0.0
 27
0.0
 37
0.0
 40
730.7207561955723
 41
2.112021857923497
 42
50.0
 43
0.0
 44
0.0
 50
0.0
 51
0.0
 71
     0
 72
   100
 73
     1
 74
     1
 75
     0
 76
     0
 77
     0
 78
     1
281
     0
 65
     1
110
0.0
120
0.0
130
0.0
111
1.0
121
0.0
131
0.0
112
0.0
122
1.0
132
0.0
 79
     0
146
0.0
1001
ACAD_NAV_VCDISPLAY
1070
     3
  0
ENDTAB
  0
TABLE
  2
LTYPE
  5
5
330
0
100
AcDbSymbolTable
 70
     2
  0
LTYPE
  5
13
330
5
100
AcDbSymbolTableRecord
100
AcDbLinetypeTableRecord
  2
BYBLOCK
 70
     0
  3

 72
    65
 73
     0
 40
0.0
  0
LTYPE
  5
14
330
5
100
AcDbSymbolTableRecord
100
AcDbLinetypeTableRecord
  2
BYLAYER
 70
     0
  3

 72
    65
 73
     0
 40
0.0
  0
LTYPE
  5
15
330
5
100
AcDbSymbolTableRecord
100
AcDbLinetypeTableRecord
  2
CONTINUOUS
 70
     0
  3
実線
 72
    65
 73
     0
 40
0.0
  0
LTYPE
  5
21
330
5
100
AcDbSymbolTableRecord
100
AcDbLinetypeTableRecord
  2
CENTER1
 70
     0
  3
----- - ----- - ----- - ----- - 
 72
    65
 73
     4
 40
10.0
 49
6.25
 74
     0
 49
-1.25
 74
     0
 49
1.25
 74
     0
 49
-1.25
 74
     0
  0
ENDTAB
  0
TABLE
  2
LAYER
  5
2
102
{ACAD_XDICTIONARY
360
11851
102
}
330
0
100
AcDbSymbolTable
 70
     3
  0
LAYER
  5
F
102
{ACAD_XDICTIONARY
360
11C2C
102
}
330
2
100
AcDbSymbolTableRecord
100
AcDbLayerTableRecord
  2
0
 70
     0
 62
     7
  6
CONTINUOUS
370
    -3
390
630E
  0
LAYER
  5
25F
330
2
100
AcDbSymbolTableRecord
100
AcDbLayerTableRecord
  2
DEFPOINTS
 70
     0
 62
     7
  6
CONTINUOUS
290
     0
370
    -3
390
630E
  0
LAYER
  5
11858
102
{ACAD_XDICTIONARY
360
11859
102
}
330
2
100
AcDbSymbolTableRecord
100
AcDbLayerTableRecord
  2
実線
 70
     0
 62
     3
  6
CONTINUOUS
370
    -3
390
630E
  0
ENDTAB
  0
TABLE
  2
STYLE
  5
3
330
0
100
AcDbSymbolTable
 70
     1
  0
STYLE
  5
10
330
3
100
AcDbSymbolTableRecord
100
AcDbTextStyleTableRecord
  2
STANDARD
 70
     0
 40
3.0
 41
1.0
 50
0.0
 71
     0
 42
3.0
  3
TXT.shx
  4
BIGFONT.shx
  0
ENDTAB
  0
TABLE
  2
VIEW
  5
6
330
0
100
AcDbSymbolTable
 70
     1
  0
VIEW
  5
D90
330
6
100
AcDbSymbolTableRecord
100
AcDbViewTableRecord
  2
OLE1
 70
     0
 40
1116.00004
 10
1068.487167009901
 20
558.00002
 41
2136.974334019802
 11
0.0
 21
0.0
 31
1.0
 12
0.0
 22
0.0
 32
0.0
 42
50.0
 43
0.0
 44
0.0
 50
0.0
 71
     0
281
     0
 72
     0
  0
ENDTAB
  0
TABLE
  2
UCS
  5
7
330
0
100
AcDbSymbolTable
 70
     0
  0
ENDTAB
  0
TABLE
  2
APPID
  5
9
330
0
100
AcDbSymbolTable
 70
     5
  0
APPID
  5
11
330
9
100
AcDbSymbolTableRecord
100
AcDbRegAppTableRecord
  2
ACAD
 70
     0
  0
APPID
  5
11857
330
9
100
AcDbSymbolTableRecord
100
AcDbRegAppTableRecord
  2
ACAD_NAV_VCDISPLAY
 70
     0
  0
APPID
  5
1185A
330
9
100
AcDbSymbolTableRecord
100
AcDbRegAppTableRecord
  2
ACAD_PSEXT
 70
     0
  0
APPID
  5
11C91
330
9
100
AcDbSymbolTableRecord
100
AcDbRegAppTableRecord
  2
ACAD_EXEMPT_FROM_CAD_STANDARDS
 70
     0
  0
APPID
  5
11DA7
330
9
100
AcDbSymbolTableRecord
100
AcDbRegAppTableRecord
  2
ACAD_MLEADERVER
 70
     0
  0
ENDTAB
  0
TABLE
  2
DIMSTYLE
  5
A
330
0
100
AcDbSymbolTable
 70
     1
100
AcDbDimStyleTable
 71
     1
340
220
  0
DIMSTYLE
105
220
102
{ACAD_REACTORS
330
10B8F
330
10C50
330
115E6
330
115F4
330
1162D
330
1163A
330
11647
330
11654
330
1170D
330
1171D
330
117AD
330
117C4
330
117D1
330
117E7
102
}
330
A
100
AcDbSymbolTableRecord
100
AcDbDimStyleTableRecord
  2
STANDARD
 70
     0
340
10
  0
ENDTAB
  0
TABLE
  2
BLOCK_RECORD
  5
1
330
0
100
AcDbSymbolTable
 70
    15
  0
BLOCK_RECORD
  5
19
330
1
100
AcDbSymbolTableRecord
100
AcDbBlockTableRecord
  2
*MODEL_SPACE
340
6311
  0
BLOCK_RECORD
  5
16
330
1
100
AcDbSymbolTableRecord
100
AcDbBlockTableRecord
  2
*PAPER_SPACE
340
6312
  0
BLOCK_RECORD
  5
24C
330
1
100
AcDbSymbolTableRecord
100
AcDbBlockTableRecord
  2
_OPEN
340
0
102
{BLKREFS
331
117E1
331
117E2
331
117EC
331
117ED
331
116BE
331
116BF
331
116C7
331
116C8
331
116D0
331
116D1
331
116E2
331
116E3
331
116EB
331
116EC
331
116F4
331
116F5
331
11795
331
11796
331
1179E
331
1179F
331
117B2
331
117B3
331
117C9
331
117CA
331
117D6
331
117D7
331
116AC
331
116AD
102
}
  0
BLOCK_RECORD
  5
10B90
330
1
100
AcDbSymbolTableRecord
100
AcDbBlockTableRecord
  2
*D1
340
0
  0
BLOCK_RECORD
  5
10C6B
330
1
100
AcDbSymbolTableRecord
100
AcDbBlockTableRecord
  2
*D2
340
0
  0
BLOCK_RECORD
  5
115E7
330
1
100
AcDbSymbolTableRecord
100
AcDbBlockTableRecord
  2
*D3
340
0
  0
BLOCK_RECORD
  5
115F5
330
1
100
AcDbSymbolTableRecord
100
AcDbBlockTableRecord
  2
*D4
340
0
  0
BLOCK_RECORD
  5
1162E
330
1
100
AcDbSymbolTableRecord
100
AcDbBlockTableRecord
  2
*D5
340
0
  0
BLOCK_RECORD
  5
1163B
330
1
100
AcDbSymbolTableRecord
100
AcDbBlockTableRecord
  2
*D6
340
0
  0
BLOCK_RECORD
  5
11648
330
1
100
AcDbSymbolTableRecord
100
AcDbBlockTableRecord
  2
*D7
340
0
  0
BLOCK_RECORD
  5
11655
330
1
100
AcDbSymbolTableRecord
100
AcDbBlockTableRecord
  2
*D8
340
0
  0
BLOCK_RECORD
  5
1175C
330
1
100
AcDbSymbolTableRecord
100
AcDbBlockTableRecord
  2
*D9
340
0
  0
BLOCK_RECORD
  5
11768
330
1
100
AcDbSymbolTableRecord
100
AcDbBlockTableRecord
  2
*D10
340
0
  0
BLOCK_RECORD
  5
117AE
330
1
100
AcDbSymbolTableRecord
100
AcDbBlockTableRecord
  2
*D11
340
0
  0
BLOCK_RECORD
  5
117C5
330
1
100
AcDbSymbolTableRecord
100
AcDbBlockTableRecord
  2
*D12
340
0
  0
BLOCK_RECORD
  5
117D2
330
1
100
AcDbSymbolTableRecord
100
AcDbBlockTableRecord
  2
*D13
340
0
  0
BLOCK_RECORD
  5
117E8
330
1
100
AcDbSymbolTableRecord
100
AcDbBlockTableRecord
  2
*D14
340
0
  0
ENDTAB
  0
ENDSEC
  0
SECTION
  2
BLOCKS
  0
BLOCK
  5
1A
330
19
100
AcDbEntity
  8
0
100
AcDbBlockBegin
  2
*MODEL_SPACE
 70
     0
 10
0.0
 20
0.0
 30
0.0
  3
*MODEL_SPACE
  1

  0
ENDBLK
  5
1B
330
19
100
AcDbEntity
  8
0
100
AcDbBlockEnd
  0
BLOCK
  5
17
330
16
100
AcDbEntity
 67
     1
  8
0
100
AcDbBlockBegin
  2
*PAPER_SPACE
 70
     0
 10
0.0
 20
0.0
 30
0.0
  3
*PAPER_SPACE
  1

  0
ENDBLK
  5
18
330
16
100
AcDbEntity
 67
     1
  8
0
100
AcDbBlockEnd
  0
BLOCK
  5
24D
330
24C
100
AcDbEntity
  8
0
100
AcDbBlockBegin
  2
_OPEN
 70
     0
 10
0.0
 20
0.0
 30
0.0
  3
_OPEN
  1

  0
LINE
  5
24E
330
24C
100
AcDbEntity
  8
0
  6
ByBlock
 62
     0
100
AcDbLine
 10
-1.0
 20
0.1666666666666666
 30
0.0
 11
0.0
 21
0.0
 31
0.0
  0
LINE
  5
24F
330
24C
100
AcDbEntity
  8
0
  6
ByBlock
 62
     0
100
AcDbLine
 10
0.0
 20
0.0
 30
0.0
 11
-1.0
 21
-0.1666666666666666
 31
0.0
  0
LINE
  5
250
330
24C
100
AcDbEntity
  8
0
  6
ByBlock
 62
     0
100
AcDbLine
 10
0.0
 20
0.0
 30
0.0
 11
-1.0
 21
0.0
 31
0.0
  0
ENDBLK
  5
251
330
24C
100
AcDbEntity
  8
0
100
AcDbBlockEnd
  0
BLOCK
  5
10B9A
330
10B90
100
AcDbEntity
  8
0
 62
     3
100
AcDbBlockBegin
  2
*D1
 70
     1
 10
0.0
 20
0.0
 30
0.0
  3
*D1
  1

  0
LINE
  5
116C4
330
10B90
100
AcDbEntity
  8
0
  6
Continuous
 62
     4
370
    -2
100
AcDbLine
 10
189.6481107817071
 20
219.4408910343601
 30
0.0
 11
189.6481107817071
 21
240.8411052584503
 31
0.0
  0
LINE
  5
116C5
330
10B90
100
AcDbEntity
  8
0
  6
Continuous
 62
     4
370
    -2
100
AcDbLine
 10
224.6481107816985
 20
199.3850750730101
 30
0.0
 11
224.6481107816985
 21
240.8411052584503
 31
0.0
  0
LINE
  5
116C6
330
10B90
100
AcDbEntity
  8
0
  6
Continuous
 62
     4
370
    -2
100
AcDbLine
 10
192.6481107817071
 20
238.8411052584503
 30
0.0
 11
221.6481107816985
 21
238.8411052584503
 31
0.0
  0
INSERT
  5
116C7
330
10B90
100
AcDbEntity
  8
0
  6
Continuous
 62
     4
370
    -2
100
AcDbBlockReference
  2
_OPEN
 10
189.6481107817071
 20
238.8411052584503
 30
0.0
 41
3.0
 42
3.0
 43
3.0
 50
180.0
  0
INSERT
  5
116C8
330
10B90
100
AcDbEntity
  8
0
  6
Continuous
 62
     4
370
    -2
100
AcDbBlockReference
  2
_OPEN
 10
224.6481107816985
 20
238.8411052584503
 30
0.0
 41
3.0
 42
3.0
 43
3.0
  0
MTEXT
  5
116C9
330
10B90
100
AcDbEntity
  8
0
  6
Continuous
 62
     7
100
AcDbMText
 10
207.1481107817028
 20
241.3411052584503
 30
0.0
 40
3.0
 41
0.0
 71
     5
 72
     1
  1
\A2;35
 73
     1
 44
1.0
1001
ACAD
1000
MTEXTBEGIN
1070
    73
1070
     1
1070
    44
1040
1.0
1070
    74
1070
     0
1000
MTEXTEND
  0
POINT
  5
116CA
330
10B90
100
AcDbEntity
  8
DEFPOINTS
  6
Continuous
 62
     0
100
AcDbPoint
 10
189.6481107817071
 20
216.4408910343602
 30
0.0
  0
POINT
  5
116CB
330
10B90
100
AcDbEntity
  8
DEFPOINTS
  6
Continuous
 62
     0
100
AcDbPoint
 10
224.6481107816985
 20
196.3850750730101
 30
0.0
  0
POINT
  5
116CC
330
10B90
100
AcDbEntity
  8
DEFPOINTS
  6
Continuous
 62
     0
100
AcDbPoint
 10
224.6481107816985
 20
238.8411052584503
 30
0.0
  0
ENDBLK
  5
10B9B
330
10B90
100
AcDbEntity
  8
0
 62
     3
100
AcDbBlockEnd
  0
BLOCK
  5
10C75
330
10C6B
100
AcDbEntity
  8
0
 62
     3
100
AcDbBlockBegin
  2
*D2
 70
     1
 10
0.0
 20
0.0
 30
0.0
  3
*D2
  1

  0
LINE
  5
116BB
330
10C6B
100
AcDbEntity
  8
0
  6
Continuous
 62
     4
370
    -2
100
AcDbLine
 10
184.6481107817071
 20
219.4408910343601
 30
0.0
 11
184.6481107817071
 21
240.8411052584503
 31
0.0
  0
LINE
  5
116BC
330
10C6B
100
AcDbEntity
  8
0
  6
Continuous
 62
     4
370
    -2
100
AcDbLine
 10
149.6481107817156
 20
199.3850750730101
 30
0.0
 11
149.6481107817156
 21
240.8411052584503
 31
0.0
  0
LINE
  5
116BD
330
10C6B
100
AcDbEntity
  8
0
  6
Continuous
 62
     4
370
    -2
100
AcDbLine
 10
181.6481107817071
 20
238.8411052584503
 30
0.0
 11
152.6481107817156
 21
238.8411052584503
 31
0.0
  0
INSERT
  5
116BE
330
10C6B
100
AcDbEntity
  8
0
  6
Continuous
 62
     4
370
    -2
100
AcDbBlockReference
  2
_OPEN
 10
184.6481107817071
 20
238.8411052584503
 30
0.0
 41
3.0
 42
3.0
 43
3.0
  0
INSERT
  5
116BF
330
10C6B
100
AcDbEntity
  8
0
  6
Continuous
 62
     4
370
    -2
100
AcDbBlockReference
  2
_OPEN
 10
149.6481107817156
 20
238.8411052584503
 30
0.0
 41
3.0
 42
3.0
 43
3.0
 50
180.0
  0
MTEXT
  5
116C0
330
10C6B
100
AcDbEntity
  8
0
  6
Continuous
 62
     7
100
AcDbMText
 10
167.1481107817115
 20
241.3411052584503
 30
0.0
 40
3.0
 41
0.0
 71
     5
 72
     1
  1
\A2;35
 73
     1
 44
1.0
1001
ACAD
1000
MTEXTBEGIN
1070
    73
1070
     1
1070
    44
1040
1.0
1070
    74
1070
     0
1000
MTEXTEND
  0
POINT
  5
116C1
330
10C6B
100
AcDbEntity
  8
DEFPOINTS
  6
Continuous
 62
     0
100
AcDbPoint
 10
184.6481107817071
 20
216.4408910343602
 30
0.0
  0
POINT
  5
116C2
330
10C6B
100
AcDbEntity
  8
DEFPOINTS
  6
Continuous
 62
     0
100
AcDbPoint
 10
149.6481107817156
 20
196.3850750730101
 30
0.0
  0
POINT
  5
116C3
330
10C6B
100
AcDbEntity
  8
DEFPOINTS
  6
Continuous
 62
     0
100
AcDbPoint
 10
149.6481107817156
 20
238.8411052584503
 30
0.0
  0
ENDBLK
  5
10C76
330
10C6B
100
AcDbEntity
  8
0
 62
     3
100
AcDbBlockEnd
  0
BLOCK
  5
115F1
330
115E7
100
AcDbEntity
  8
0
 62
     3
100
AcDbBlockBegin
  2
*D3
 70
     1
 10
0.0
 20
0.0
 30
0.0
  3
*D3
  1

  0
LINE
  5
117DE
330
115E7
100
AcDbEntity
  8
0
  6
Continuous
 62
     4
370
    -2
100
AcDbLine
 10
149.6481107817156
 20
199.3850750730101
 30
0.0
 11
149.6481107817156
 21
247.2345601760982
 31
0.0
  0
LINE
  5
117DF
330
115E7
100
AcDbEntity
  8
0
  6
Continuous
 62
     4
370
    -2
100
AcDbLine
 10
224.6481107817071
 20
199.3850750729971
 30
0.0
 11
224.6481107817071
 21
247.2345601760982
 31
0.0
  0
LINE
  5
117E0
330
115E7
100
AcDbEntity
  8
0
  6
Continuous
 62
     4
370
    -2
100
AcDbLine
 10
152.6481107817156
 20
245.2345601760982
 30
0.0
 11
221.6481107817071
 21
245.2345601760982
 31
0.0
  0
INSERT
  5
117E1
330
115E7
100
AcDbEntity
  8
0
  6
Continuous
 62
     4
370
    -2
100
AcDbBlockReference
  2
_OPEN
 10
149.6481107817156
 20
245.2345601760982
 30
0.0
 41
3.0
 42
3.0
 43
3.0
 50
180.0
  0
INSERT
  5
117E2
330
115E7
100
AcDbEntity
  8
0
  6
Continuous
 62
     4
370
    -2
100
AcDbBlockReference
  2
_OPEN
 10
224.6481107817071
 20
245.2345601760982
 30
0.0
 41
3.0
 42
3.0
 43
3.0
  0
MTEXT
  5
117E3
330
115E7
100
AcDbEntity
  8
0
  6
Continuous
 62
     7
100
AcDbMText
 10
187.1481107817114
 20
247.7345601760982
 30
0.0
 40
3.0
 41
0.0
 71
     5
 72
     1
  1
\A2;75
 73
     1
 44
1.0
1001
ACAD
1000
MTEXTBEGIN
1070
    73
1070
     1
1070
    44
1040
1.0
1070
    74
1070
     0
1000
MTEXTEND
  0
POINT
  5
117E4
330
115E7
100
AcDbEntity
  8
DEFPOINTS
  6
Continuous
 62
     0
100
AcDbPoint
 10
149.6481107817156
 20
196.3850750730101
 30
0.0
  0
POINT
  5
117E5
330
115E7
100
AcDbEntity
  8
DEFPOINTS
  6
Continuous
 62
     0
100
AcDbPoint
 10
224.6481107817071
 20
196.3850750729971
 30
0.0
  0
POINT
  5
117E6
330
115E7
100
AcDbEntity
  8
DEFPOINTS
  6
Continuous
 62
     0
100
AcDbPoint
 10
224.6481107817071
 20
245.2345601760982
 30
0.0
  0
ENDBLK
  5
115F2
330
115E7
100
AcDbEntity
  8
0
 62
     3
100
AcDbBlockEnd
  0
BLOCK
  5
115FF
330
115F5
100
AcDbEntity
  8
0
 62
     3
100
AcDbBlockBegin
  2
*D4
 70
     1
 10
0.0
 20
0.0
 30
0.0
  3
*D4
  1

  0
LINE
  5
116A9
330
115F5
100
AcDbEntity
  8
0
  6
Continuous
 62
     4
370
    -2
100
AcDbLine
 10
181.6481107817071
 20
126.579887256303
 30
0.0
 11
121.3580922972132
 21
126.579887256303
 31
0.0
  0
LINE
  5
116AA
330
115F5
100
AcDbEntity
  8
0
  6
Continuous
 62
     4
370
    -2
100
AcDbLine
 10
181.6481107817071
 20
216.4408910343602
 30
0.0
 11
121.3580922972132
 21
216.4408910343602
 31
0.0
  0
LINE
  5
116AB
330
115F5
100
AcDbEntity
  8
0
  6
Continuous
 62
     4
370
    -2
100
AcDbLine
 10
123.3580922972132
 20
129.579887256303
 30
0.0
 11
123.3580922972132
 21
213.4408910343601
 31
0.0
  0
INSERT
  5
116AC
330
115F5
100
AcDbEntity
  8
0
  6
Continuous
 62
     4
370
    -2
100
AcDbBlockReference
  2
_OPEN
 10
123.3580922972132
 20
126.579887256303
 30
0.0
 41
3.0
 42
3.0
 43
3.0
 50
270.0
  0
INSERT
  5
116AD
330
115F5
100
AcDbEntity
  8
0
  6
Continuous
 62
     4
370
    -2
100
AcDbBlockReference
  2
_OPEN
 10
123.3580922972132
 20
216.4408910343602
 30
0.0
 41
3.0
 42
3.0
 43
3.0
 50
90.0
  0
MTEXT
  5
116AE
330
115F5
100
AcDbEntity
  8
0
  6
Continuous
 62
     7
100
AcDbMText
 10
120.8580922972132
 20
171.5103891453316
 30
0.0
 40
3.0
 41
0.0
 71
     5
 72
     1
  1
\A2;89.9
 11
0.0000000000000001
 21
1.0
 31
0.0
 73
     1
 44
1.0
1001
ACAD
1000
MTEXTBEGIN
1070
    73
1070
     1
1070
    44
1040
1.0
1070
    74
1070
     0
1000
MTEXTEND
  0
POINT
  5
116AF
330
115F5
100
AcDbEntity
  8
DEFPOINTS
  6
Continuous
 62
     0
100
AcDbPoint
 10
184.6481107817071
 20
126.579887256303
 30
0.0
  0
POINT
  5
116B0
330
115F5
100
AcDbEntity
  8
DEFPOINTS
  6
Continuous
 62
     0
100
AcDbPoint
 10
184.6481107817071
 20
216.4408910343602
 30
0.0
  0
POINT
  5
116B1
330
115F5
100
AcDbEntity
  8
DEFPOINTS
  6
Continuous
 62
     0
100
AcDbPoint
 10
123.3580922972132
 20
216.4408910343602
 30
0.0
  0
ENDBLK
  5
11600
330
115F5
100
AcDbEntity
  8
0
 62
     3
100
AcDbBlockEnd
  0
BLOCK
  5
11638
330
1162E
100
AcDbEntity
  8
0
 62
     3
100
AcDbBlockBegin
  2
*D5
 70
     1
 10
0.0
 20
0.0
 30
0.0
  3
*D5
  1

  0
LINE
  5
116F1
330
1162E
100
AcDbEntity
  8
0
  6
Continuous
 62
     4
370
    -2
100
AcDbLine
 10
290.3629370857207
 20
161.5103891453316
 30
0.0
 11
260.6011154083643
 21
161.5103891453316
 31
0.0
  0
LINE
  5
116F2
330
1162E
100
AcDbEntity
  8
0
  6
Continuous
 62
     4
370
    -2
100
AcDbLine
 10
290.3629370857207
 20
181.5103891453316
 30
0.0
 11
260.6011154083643
 21
181.5103891453316
 31
0.0
  0
LINE
  5
116F3
330
1162E
100
AcDbEntity
  8
0
  6
Continuous
 62
     4
370
    -2
100
AcDbLine
 10
262.6011154083643
 20
164.5103891453316
 30
0.0
 11
262.6011154083643
 21
178.5103891453316
 31
0.0
  0
INSERT
  5
116F4
330
1162E
100
AcDbEntity
  8
0
  6
Continuous
 62
     4
370
    -2
100
AcDbBlockReference
  2
_OPEN
 10
262.6011154083643
 20
161.5103891453316
 30
0.0
 41
3.0
 42
3.0
 43
3.0
 50
270.0
  0
INSERT
  5
116F5
330
1162E
100
AcDbEntity
  8
0
  6
Continuous
 62
     4
370
    -2
100
AcDbBlockReference
  2
_OPEN
 10
262.6011154083643
 20
181.5103891453316
 30
0.0
 41
3.0
 42
3.0
 43
3.0
 50
90.0
  0
MTEXT
  5
116F6
330
1162E
100
AcDbEntity
  8
0
  6
Continuous
 62
     7
100
AcDbMText
 10
260.1011154083642
 20
171.5103891453316
 30
0.0
 40
3.0
 41
0.0
 71
     5
 72
     1
  1
\A2;20
 11
0.0000000000000001
 21
1.0
 31
0.0
 73
     1
 44
1.0
1001
ACAD
1000
MTEXTBEGIN
1070
    73
1070
     1
1070
    44
1040
1.0
1070
    74
1070
     0
1000
MTEXTEND
  0
POINT
  5
116F7
330
1162E
100
AcDbEntity
  8
DEFPOINTS
  6
Continuous
 62
     0
100
AcDbPoint
 10
293.3629370857206
 20
161.5103891453316
 30
0.0
  0
POINT
  5
116F8
330
1162E
100
AcDbEntity
  8
DEFPOINTS
  6
Continuous
 62
     0
100
AcDbPoint
 10
293.3629370857206
 20
181.5103891453316
 30
0.0
  0
POINT
  5
116F9
330
1162E
100
AcDbEntity
  8
DEFPOINTS
  6
Continuous
 62
     0
100
AcDbPoint
 10
262.6011154083643
 20
181.5103891453316
 30
0.0
  0
ENDBLK
  5
11639
330
1162E
100
AcDbEntity
  8
0
 62
     3
100
AcDbBlockEnd
  0
BLOCK
  5
11645
330
1163B
100
AcDbEntity
  8
0
 62
     3
100
AcDbBlockBegin
  2
*D6
 70
     1
 10
0.0
 20
0.0
 30
0.0
  3
*D6
  1

  0
LINE
  5
116CD
330
1163B
100
AcDbEntity
  8
0
  6
Continuous
 62
     4
370
    -2
100
AcDbLine
 10
293.3629370857206
 20
158.5103891453316
 30
0.0
 11
293.3629370857206
 21
102.3895655964655
 31
0.0
  0
LINE
  5
116CE
330
1163B
100
AcDbEntity
  8
0
  6
Continuous
 62
     4
370
    -2
100
AcDbLine
 10
313.3629370857207
 20
158.5103891453316
 30
0.0
 11
313.3629370857207
 21
102.3895655964655
 31
0.0
  0
LINE
  5
116CF
330
1163B
100
AcDbEntity
  8
0
  6
Continuous
 62
     4
370
    -2
100
AcDbLine
 10
296.3629370857207
 20
104.3895655964655
 30
0.0
 11
310.3629370857206
 21
104.3895655964655
 31
0.0
  0
INSERT
  5
116D0
330
1163B
100
AcDbEntity
  8
0
  6
Continuous
 62
     4
370
    -2
100
AcDbBlockReference
  2
_OPEN
 10
293.3629370857206
 20
104.3895655964655
 30
0.0
 41
3.0
 42
3.0
 43
3.0
 50
180.0
  0
INSERT
  5
116D1
330
1163B
100
AcDbEntity
  8
0
  6
Continuous
 62
     4
370
    -2
100
AcDbBlockReference
  2
_OPEN
 10
313.3629370857207
 20
104.3895655964655
 30
0.0
 41
3.0
 42
3.0
 43
3.0
  0
MTEXT
  5
116D2
330
1163B
100
AcDbEntity
  8
0
  6
Continuous
 62
     7
100
AcDbMText
 10
303.3629370857207
 20
106.8895655964655
 30
0.0
 40
3.0
 41
0.0
 71
     5
 72
     1
  1
\A2;20
 73
     1
 44
1.0
1001
ACAD
1000
MTEXTBEGIN
1070
    73
1070
     1
1070
    44
1040
1.0
1070
    74
1070
     0
1000
MTEXTEND
  0
POINT
  5
116D3
330
1163B
100
AcDbEntity
  8
DEFPOINTS
  6
Continuous
 62
     0
100
AcDbPoint
 10
293.3629370857206
 20
161.5103891453316
 30
0.0
  0
POINT
  5
116D4
330
1163B
100
AcDbEntity
  8
DEFPOINTS
  6
Continuous
 62
     0
100
AcDbPoint
 10
313.3629370857207
 20
161.5103891453316
 30
0.0
  0
POINT
  5
116D5
330
1163B
100
AcDbEntity
  8
DEFPOINTS
  6
Continuous
 62
     0
100
AcDbPoint
 10
313.3629370857207
 20
104.3895655964655
 30
0.0
  0
ENDBLK
  5
11646
330
1163B
100
AcDbEntity
  8
0
 62
     3
100
AcDbBlockEnd
  0
BLOCK
  5
11652
330
11648
100
AcDbEntity
  8
0
 62
     3
100
AcDbBlockBegin
  2
*D7
 70
     1
 10
0.0
 20
0.0
 30
0.0
  3
*D7
  1

  0
LINE
  5
116DF
330
11648
100
AcDbEntity
  8
0
  6
Continuous
 62
     4
370
    -2
100
AcDbLine
 10
306.3629370857205
 20
157.2103891453314
 30
0.0
 11
343.6193709900057
 21
157.2103891453314
 31
0.0
  0
LINE
  5
116E0
330
11648
100
AcDbEntity
  8
0
  6
Continuous
 62
     4
370
    -2
100
AcDbLine
 10
306.3629370857205
 20
185.8103891453318
 30
0.0
 11
343.6193709900057
 21
185.8103891453317
 31
0.0
  0
LINE
  5
116E1
330
11648
100
AcDbEntity
  8
0
  6
Continuous
 62
     4
370
    -2
100
AcDbLine
 10
341.6193709900057
 20
160.2103891453314
 30
0.0
 11
341.6193709900057
 21
182.8103891453317
 31
0.0
  0
INSERT
  5
116E2
330
11648
100
AcDbEntity
  8
0
  6
Continuous
 62
     4
370
    -2
100
AcDbBlockReference
  2
_OPEN
 10
341.6193709900057
 20
157.2103891453314
 30
0.0
 41
3.0
 42
3.0
 43
3.0
 50
270.0
  0
INSERT
  5
116E3
330
11648
100
AcDbEntity
  8
0
  6
Continuous
 62
     4
370
    -2
100
AcDbBlockReference
  2
_OPEN
 10
341.6193709900057
 20
185.8103891453317
 30
0.0
 41
3.0
 42
3.0
 43
3.0
 50
90.0
  0
MTEXT
  5
116E4
330
11648
100
AcDbEntity
  8
0
  6
Continuous
 62
     7
100
AcDbMText
 10
339.1193709900056
 20
171.5103891453316
 30
0.0
 40
3.0
 41
0.0
 71
     5
 72
     1
  1
\A2;28.6
 11
0.0000000000000001
 21
1.0
 31
0.0
 73
     1
 44
1.0
1001
ACAD
1000
MTEXTBEGIN
1070
    73
1070
     1
1070
    44
1040
1.0
1070
    74
1070
     0
1000
MTEXTEND
  0
POINT
  5
116E5
330
11648
100
AcDbEntity
  8
DEFPOINTS
  6
Continuous
 62
     0
100
AcDbPoint
 10
303.3629370857207
 20
157.2103891453314
 30
0.0
  0
POINT
  5
116E6
330
11648
100
AcDbEntity
  8
DEFPOINTS
  6
Continuous
 62
     0
100
AcDbPoint
 10
303.3629370857207
 20
185.8103891453318
 30
0.0
  0
POINT
  5
116E7
330
11648
100
AcDbEntity
  8
DEFPOINTS
  6
Continuous
 62
     0
100
AcDbPoint
 10
341.6193709900057
 20
185.8103891453317
 30
0.0
  0
ENDBLK
  5
11653
330
11648
100
AcDbEntity
  8
0
 62
     3
100
AcDbBlockEnd
  0
BLOCK
  5
1165F
330
11655
100
AcDbEntity
  8
0
 62
     3
100
AcDbBlockBegin
  2
*D8
 70
     1
 10
0.0
 20
0.0
 30
0.0
  3
*D8
  1

  0
LINE
  5
116E8
330
11655
100
AcDbEntity
  8
0
  6
Continuous
 62
     4
370
    -2
100
AcDbLine
 10
300.3629370857205
 20
141.5103891453316
 30
0.0
 11
254.2599125473392
 21
141.5103891453316
 31
0.0
  0
LINE
  5
116E9
330
11655
100
AcDbEntity
  8
0
  6
Continuous
 62
     4
370
    -2
100
AcDbLine
 10
300.3629370857205
 20
201.5103891453316
 30
0.0
 11
254.2599125473393
 21
201.5103891453316
 31
0.0
  0
LINE
  5
116EA
330
11655
100
AcDbEntity
  8
0
  6
Continuous
 62
     4
370
    -2
100
AcDbLine
 10
256.2599125473393
 20
144.5103891453316
 30
0.0
 11
256.2599125473393
 21
198.5103891453316
 31
0.0
  0
INSERT
  5
116EB
330
11655
100
AcDbEntity
  8
0
  6
Continuous
 62
     4
370
    -2
100
AcDbBlockReference
  2
_OPEN
 10
256.2599125473393
 20
141.5103891453316
 30
0.0
 41
3.0
 42
3.0
 43
3.0
 50
270.0
  0
INSERT
  5
116EC
330
11655
100
AcDbEntity
  8
0
  6
Continuous
 62
     4
370
    -2
100
AcDbBlockReference
  2
_OPEN
 10
256.2599125473393
 20
201.5103891453316
 30
0.0
 41
3.0
 42
3.0
 43
3.0
 50
90.0
  0
MTEXT
  5
116ED
330
11655
100
AcDbEntity
  8
0
  6
Continuous
 62
     7
100
AcDbMText
 10
253.7599125473392
 20
171.5103891453316
 30
0.0
 40
3.0
 41
0.0
 71
     5
 72
     1
  1
\A2;60
 11
0.0000000000000001
 21
1.0
 31
0.0
 73
     1
 44
1.0
1001
ACAD
1000
MTEXTBEGIN
1070
    73
1070
     1
1070
    44
1040
1.0
1070
    74
1070
     0
1000
MTEXTEND
  0
POINT
  5
116EE
330
11655
100
AcDbEntity
  8
DEFPOINTS
  6
Continuous
 62
     0
100
AcDbPoint
 10
303.3629370857204
 20
141.5103891453316
 30
0.0
  0
POINT
  5
116EF
330
11655
100
AcDbEntity
  8
DEFPOINTS
  6
Continuous
 62
     0
100
AcDbPoint
 10
303.3629370857207
 20
201.5103891453316
 30
0.0
  0
POINT
  5
116F0
330
11655
100
AcDbEntity
  8
DEFPOINTS
  6
Continuous
 62
     0
100
AcDbPoint
 10
256.2599125473393
 20
201.5103891453316
 30
0.0
  0
ENDBLK
  5
11660
330
11655
100
AcDbEntity
  8
0
 62
     3
100
AcDbBlockEnd
  0
BLOCK
  5
11766
330
1175C
100
AcDbEntity
  8
0
 62
     3
100
AcDbBlockBegin
  2
*D9
 70
     1
 10
0.0
 20
0.0
 30
0.0
  3
*D9
  1

  0
LINE
  5
11792
330
1175C
100
AcDbEntity
  8
0
  6
Continuous
 62
     4
370
    -2
100
AcDbLine
 10
58.90373583990253
 20
158.5103891453316
 30
0.0
 11
58.90373583990253
 21
102.3895655964655
 31
0.0
  0
LINE
  5
11793
330
1175C
100
AcDbEntity
  8
0
  6
Continuous
 62
     4
370
    -2
100
AcDbLine
 10
78.90373583990253
 20
158.5103891453316
 30
0.0
 11
78.90373583990253
 21
102.3895655964655
 31
0.0
  0
LINE
  5
11794
330
1175C
100
AcDbEntity
  8
0
  6
Continuous
 62
     4
370
    -2
100
AcDbLine
 10
61.90373583990254
 20
104.3895655964655
 30
0.0
 11
75.90373583990253
 21
104.3895655964655
 31
0.0
  0
INSERT
  5
11795
330
1175C
100
AcDbEntity
  8
0
  6
Continuous
 62
     4
370
    -2
100
AcDbBlockReference
  2
_OPEN
 10
58.90373583990253
 20
104.3895655964655
 30
0.0
 41
3.0
 42
3.0
 43
3.0
 50
180.0
  0
INSERT
  5
11796
330
1175C
100
AcDbEntity
  8
0
  6
Continuous
 62
     4
370
    -2
100
AcDbBlockReference
  2
_OPEN
 10
78.90373583990253
 20
104.3895655964655
 30
0.0
 41
3.0
 42
3.0
 43
3.0
  0
MTEXT
  5
11797
330
1175C
100
AcDbEntity
  8
0
  6
Continuous
 62
     7
100
AcDbMText
 10
68.90373583990253
 20
106.8895655964655
 30
0.0
 40
3.0
 41
0.0
 71
     5
 72
     1
  1
\A2;20
 73
     1
 44
1.0
1001
ACAD
1000
MTEXTBEGIN
1070
    73
1070
     1
1070
    44
1040
1.0
1070
    74
1070
     0
1000
MTEXTEND
  0
POINT
  5
11798
330
1175C
100
AcDbEntity
  8
DEFPOINTS
  6
Continuous
 62
     0
100
AcDbPoint
 10
58.90373583990253
 20
161.5103891453316
 30
0.0
  0
POINT
  5
11799
330
1175C
100
AcDbEntity
  8
DEFPOINTS
  6
Continuous
 62
     0
100
AcDbPoint
 10
78.90373583990253
 20
161.5103891453316
 30
0.0
  0
POINT
  5
1179A
330
1175C
100
AcDbEntity
  8
DEFPOINTS
  6
Continuous
 62
     0
100
AcDbPoint
 10
78.90373583990253
 20
104.3895655964655
 30
0.0
  0
ENDBLK
  5
11767
330
1175C
100
AcDbEntity
  8
0
 62
     3
100
AcDbBlockEnd
  0
BLOCK
  5
11772
330
11768
100
AcDbEntity
  8
0
 62
     3
100
AcDbBlockBegin
  2
*D10
 70
     1
 10
0.0
 20
0.0
 30
0.0
  3
*D10
  1

  0
LINE
  5
1179B
330
11768
100
AcDbEntity
  8
0
  6
Continuous
 62
     4
370
    -2
100
AcDbLine
 10
71.90373583990242
 20
157.2103891453314
 30
0.0
 11
109.1601697441875
 21
157.2103891453314
 31
0.0
  0
LINE
  5
1179C
330
11768
100
AcDbEntity
  8
0
  6
Continuous
 62
     4
370
    -2
100
AcDbLine
 10
71.90373583990242
 20
185.8103891453318
 30
0.0
 11
109.1601697441875
 21
185.8103891453318
 31
0.0
  0
LINE
  5
1179D
330
11768
100
AcDbEntity
  8
0
  6
Continuous
 62
     4
370
    -2
100
AcDbLine
 10
107.1601697441875
 20
160.2103891453314
 30
0.0
 11
107.1601697441875
 21
182.8103891453318
 31
0.0
  0
INSERT
  5
1179E
330
11768
100
AcDbEntity
  8
0
  6
Continuous
 62
     4
370
    -2
100
AcDbBlockReference
  2
_OPEN
 10
107.1601697441875
 20
157.2103891453314
 30
0.0
 41
3.0
 42
3.0
 43
3.0
 50
270.0
  0
INSERT
  5
1179F
330
11768
100
AcDbEntity
  8
0
  6
Continuous
 62
     4
370
    -2
100
AcDbBlockReference
  2
_OPEN
 10
107.1601697441875
 20
185.8103891453318
 30
0.0
 41
3.0
 42
3.0
 43
3.0
 50
90.0
  0
MTEXT
  5
117A0
330
11768
100
AcDbEntity
  8
0
  6
Continuous
 62
     7
100
AcDbMText
 10
104.6601697441875
 20
171.5103891453316
 30
0.0
 40
3.0
 41
0.0
 71
     5
 72
     1
  1
\A2;28.6
 11
0.0000000000000001
 21
1.0
 31
0.0
 73
     1
 44
1.0
1001
ACAD
1000
MTEXTBEGIN
1070
    73
1070
     1
1070
    44
1040
1.0
1070
    74
1070
     0
1000
MTEXTEND
  0
POINT
  5
117A1
330
11768
100
AcDbEntity
  8
DEFPOINTS
  6
Continuous
 62
     0
100
AcDbPoint
 10
68.90373583990243
 20
157.2103891453314
 30
0.0
  0
POINT
  5
117A2
330
11768
100
AcDbEntity
  8
DEFPOINTS
  6
Continuous
 62
     0
100
AcDbPoint
 10
68.90373583990243
 20
185.8103891453318
 30
0.0
  0
POINT
  5
117A3
330
11768
100
AcDbEntity
  8
DEFPOINTS
  6
Continuous
 62
     0
100
AcDbPoint
 10
107.1601697441875
 20
185.8103891453318
 30
0.0
  0
ENDBLK
  5
11773
330
11768
100
AcDbEntity
  8
0
 62
     3
100
AcDbBlockEnd
  0
BLOCK
  5
117B8
330
117AE
100
AcDbEntity
  8
0
 62
     3
100
AcDbBlockBegin
  2
*D11
 70
     1
 10
0.0
 20
0.0
 30
0.0
  3
*D11
  1

  0
LINE
  5
117AF
330
117AE
100
AcDbEntity
  8
0
  6
Continuous
 62
     4
370
    -2
100
AcDbLine
 10
55.90373583990253
 20
161.5103891453316
 30
0.0
 11
30.58787164327236
 21
161.5103891453316
 31
0.0
  0
LINE
  5
117B0
330
117AE
100
AcDbEntity
  8
0
  6
Continuous
 62
     4
370
    -2
100
AcDbLine
 10
55.90373583990253
 20
181.5103891453316
 30
0.0
 11
30.58787164327236
 21
181.5103891453316
 31
0.0
  0
LINE
  5
117B1
330
117AE
100
AcDbEntity
  8
0
  6
Continuous
 62
     4
370
    -2
100
AcDbLine
 10
32.58787164327237
 20
164.5103891453316
 30
0.0
 11
32.58787164327237
 21
178.5103891453315
 31
0.0
  0
INSERT
  5
117B2
330
117AE
100
AcDbEntity
  8
0
  6
Continuous
 62
     4
370
    -2
100
AcDbBlockReference
  2
_OPEN
 10
32.58787164327237
 20
161.5103891453316
 30
0.0
 41
3.0
 42
3.0
 43
3.0
 50
270.0
  0
INSERT
  5
117B3
330
117AE
100
AcDbEntity
  8
0
  6
Continuous
 62
     4
370
    -2
100
AcDbBlockReference
  2
_OPEN
 10
32.58787164327237
 20
181.5103891453316
 30
0.0
 41
3.0
 42
3.0
 43
3.0
 50
90.0
  0
MTEXT
  5
117B4
330
117AE
100
AcDbEntity
  8
0
  6
Continuous
 62
     7
100
AcDbMText
 10
30.08787164327233
 20
171.5103891453316
 30
0.0
 40
3.0
 41
0.0
 71
     5
 72
     1
  1
\A2;20
 11
0.0000000000000001
 21
1.0
 31
0.0
 73
     1
 44
1.0
1001
ACAD
1000
MTEXTBEGIN
1070
    73
1070
     1
1070
    44
1040
1.0
1070
    74
1070
     0
1000
MTEXTEND
  0
POINT
  5
117B5
330
117AE
100
AcDbEntity
  8
DEFPOINTS
  6
Continuous
 62
     0
100
AcDbPoint
 10
58.90373583990253
 20
161.5103891453316
 30
0.0
  0
POINT
  5
117B6
330
117AE
100
AcDbEntity
  8
DEFPOINTS
  6
Continuous
 62
     0
100
AcDbPoint
 10
58.90373583990253
 20
181.5103891453316
 30
0.0
  0
POINT
  5
117B7
330
117AE
100
AcDbEntity
  8
DEFPOINTS
  6
Continuous
 62
     0
100
AcDbPoint
 10
32.58787164327237
 20
181.5103891453316
 30
0.0
  0
ENDBLK
  5
117B9
330
117AE
100
AcDbEntity
  8
0
 62
     3
100
AcDbBlockEnd
  0
BLOCK
  5
117CF
330
117C5
100
AcDbEntity
  8
0
 62
     3
100
AcDbBlockBegin
  2
*D12
 70
     1
 10
0.0
 20
0.0
 30
0.0
  3
*D12
  1

  0
LINE
  5
117C6
330
117C5
100
AcDbEntity
  8
0
  6
Continuous
 62
     4
370
    -2
100
AcDbLine
 10
53.90373583990243
 20
185.2225317881456
 30
0.0
 11
53.90373583990243
 21
240.8411052584503
 31
0.0
  0
LINE
  5
117C7
330
117C5
100
AcDbEntity
  8
0
  6
Continuous
 62
     4
370
    -2
100
AcDbLine
 10
83.90373583990252
 20
185.2225317881495
 30
0.0
 11
83.90373583990252
 21
240.8411052584503
 31
0.0
  0
LINE
  5
117C8
330
117C5
100
AcDbEntity
  8
0
  6
Continuous
 62
     4
370
    -2
100
AcDbLine
 10
56.90373583990242
 20
238.8411052584503
 30
0.0
 11
80.90373583990251
 21
238.8411052584503
 31
0.0
  0
INSERT
  5
117C9
330
117C5
100
AcDbEntity
  8
0
  6
Continuous
 62
     4
370
    -2
100
AcDbBlockReference
  2
_OPEN
 10
53.90373583990243
 20
238.8411052584503
 30
0.0
 41
3.0
 42
3.0
 43
3.0
 50
180.0
  0
INSERT
  5
117CA
330
117C5
100
AcDbEntity
  8
0
  6
Continuous
 62
     4
370
    -2
100
AcDbBlockReference
  2
_OPEN
 10
83.90373583990252
 20
238.8411052584503
 30
0.0
 41
3.0
 42
3.0
 43
3.0
  0
MTEXT
  5
117CB
330
117C5
100
AcDbEntity
  8
0
  6
Continuous
 62
     7
100
AcDbMText
 10
68.90373583990245
 20
241.3411052584503
 30
0.0
 40
3.0
 41
0.0
 71
     5
 72
     1
  1
\A2;30
 73
     1
 44
1.0
1001
ACAD
1000
MTEXTBEGIN
1070
    73
1070
     1
1070
    44
1040
1.0
1070
    74
1070
     0
1000
MTEXTEND
  0
POINT
  5
117CC
330
117C5
100
AcDbEntity
  8
DEFPOINTS
  6
Continuous
 62
     0
100
AcDbPoint
 10
53.90373583990243
 20
182.2225317881456
 30
0.0
  0
POINT
  5
117CD
330
117C5
100
AcDbEntity
  8
DEFPOINTS
  6
Continuous
 62
     0
100
AcDbPoint
 10
83.90373583990252
 20
182.2225317881495
 30
0.0
  0
POINT
  5
117CE
330
117C5
100
AcDbEntity
  8
DEFPOINTS
  6
Continuous
 62
     0
100
AcDbPoint
 10
83.90373583990252
 20
238.8411052584503
 30
0.0
  0
ENDBLK
  5
117D0
330
117C5
100
AcDbEntity
  8
0
 62
     3
100
AcDbBlockEnd
  0
BLOCK
  5
117DC
330
117D2
100
AcDbEntity
  8
0
 62
     3
100
AcDbBlockBegin
  2
*D13
 70
     1
 10
0.0
 20
0.0
 30
0.0
  3
*D13
  1

  0
LINE
  5
117D3
330
117D2
100
AcDbEntity
  8
0
  6
Continuous
 62
     4
370
    -2
100
AcDbLine
 10
146.6481107817071
 20
52.04931941606513
 30
0.0
 11
121.3580922972132
 21
52.04931941606515
 31
0.0
  0
LINE
  5
117D4
330
117D2
100
AcDbEntity
  8
0
  6
Continuous
 62
     4
370
    -2
100
AcDbLine
 10
146.6481107817071
 20
82.04931941606515
 30
0.0
 11
121.3580922972132
 21
82.04931941606515
 31
0.0
  0
LINE
  5
117D5
330
117D2
100
AcDbEntity
  8
0
  6
Continuous
 62
     4
370
    -2
100
AcDbLine
 10
123.3580922972132
 20
55.04931941606515
 30
0.0
 11
123.3580922972132
 21
79.04931941606514
 31
0.0
  0
INSERT
  5
117D6
330
117D2
100
AcDbEntity
  8
0
  6
Continuous
 62
     4
370
    -2
100
AcDbBlockReference
  2
_OPEN
 10
123.3580922972132
 20
52.04931941606515
 30
0.0
 41
3.0
 42
3.0
 43
3.0
 50
270.0
  0
INSERT
  5
117D7
330
117D2
100
AcDbEntity
  8
0
  6
Continuous
 62
     4
370
    -2
100
AcDbBlockReference
  2
_OPEN
 10
123.3580922972132
 20
82.04931941606515
 30
0.0
 41
3.0
 42
3.0
 43
3.0
 50
90.0
  0
MTEXT
  5
117D8
330
117D2
100
AcDbEntity
  8
0
  6
Continuous
 62
     7
100
AcDbMText
 10
120.8580922972132
 20
67.04931941606516
 30
0.0
 40
3.0
 41
0.0
 71
     5
 72
     1
  1
\A2;30
 11
0.0000000000000001
 21
1.0
 31
0.0
 73
     1
 44
1.0
1001
ACAD
1000
MTEXTBEGIN
1070
    73
1070
     1
1070
    44
1040
1.0
1070
    74
1070
     0
1000
MTEXTEND
  0
POINT
  5
117D9
330
117D2
100
AcDbEntity
  8
DEFPOINTS
  6
Continuous
 62
     0
100
AcDbPoint
 10
149.6481107817071
 20
52.04931941606513
 30
0.0
  0
POINT
  5
117DA
330
117D2
100
AcDbEntity
  8
DEFPOINTS
  6
Continuous
 62
     0
100
AcDbPoint
 10
149.6481107817071
 20
82.04931941606515
 30
0.0
  0
POINT
  5
117DB
330
117D2
100
AcDbEntity
  8
DEFPOINTS
  6
Continuous
 62
     0
100
AcDbPoint
 10
123.3580922972132
 20
82.04931941606515
 30
0.0
  0
ENDBLK
  5
117DD
330
117D2
100
AcDbEntity
  8
0
 62
     3
100
AcDbBlockEnd
  0
BLOCK
  5
117F2
330
117E8
100
AcDbEntity
  8
0
 62
     3
100
AcDbBlockBegin
  2
*D14
 70
     1
 10
0.0
 20
0.0
 30
0.0
  3
*D14
  1

  0
LINE
  5
117E9
330
117E8
100
AcDbEntity
  8
0
  6
Continuous
 62
     4
370
    -2
100
AcDbLine
 10
288.3629370857205
 20
185.2225317881456
 30
0.0
 11
288.3629370857205
 21
240.8411052584503
 31
0.0
  0
LINE
  5
117EA
330
117E8
100
AcDbEntity
  8
0
  6
Continuous
 62
     4
370
    -2
100
AcDbLine
 10
318.3629370857206
 20
185.2225317881495
 30
0.0
 11
318.3629370857206
 21
240.8411052584503
 31
0.0
  0
LINE
  5
117EB
330
117E8
100
AcDbEntity
  8
0
  6
Continuous
 62
     4
370
    -2
100
AcDbLine
 10
291.3629370857206
 20
238.8411052584503
 30
0.0
 11
315.3629370857207
 21
238.8411052584503
 31
0.0
  0
INSERT
  5
117EC
330
117E8
100
AcDbEntity
  8
0
  6
Continuous
 62
     4
370
    -2
100
AcDbBlockReference
  2
_OPEN
 10
288.3629370857205
 20
238.8411052584503
 30
0.0
 41
3.0
 42
3.0
 43
3.0
 50
180.0
  0
INSERT
  5
117ED
330
117E8
100
AcDbEntity
  8
0
  6
Continuous
 62
     4
370
    -2
100
AcDbBlockReference
  2
_OPEN
 10
318.3629370857206
 20
238.8411052584503
 30
0.0
 41
3.0
 42
3.0
 43
3.0
  0
MTEXT
  5
117EE
330
117E8
100
AcDbEntity
  8
0
  6
Continuous
 62
     7
100
AcDbMText
 10
303.3629370857207
 20
241.3411052584503
 30
0.0
 40
3.0
 41
0.0
 71
     5
 72
     1
  1
\A2;30
 73
     1
 44
1.0
1001
ACAD
1000
MTEXTBEGIN
1070
    73
1070
     1
1070
    44
1040
1.0
1070
    74
1070
     0
1000
MTEXTEND
  0
POINT
  5
117EF
330
117E8
100
AcDbEntity
  8
DEFPOINTS
  6
Continuous
 62
     0
100
AcDbPoint
 10
288.3629370857205
 20
182.2225317881456
 30
0.0
  0
POINT
  5
117F0
330
117E8
100
AcDbEntity
  8
DEFPOINTS
  6
Continuous
 62
     0
100
AcDbPoint
 10
318.3629370857206
 20
182.2225317881495
 30
0.0
  0
POINT
  5
117F1
330
117E8
100
AcDbEntity
  8
DEFPOINTS
  6
Continuous
 62
     0
100
AcDbPoint
 10
318.3629370857206
 20
238.8411052584503
 30
0.0
  0
ENDBLK
  5
117F3
330
117E8
100
AcDbEntity
  8
0
 62
     3
100
AcDbBlockEnd
  0
ENDSEC
  0
SECTION
  2
ENTITIES
  0
LINE
  5
2A
330
19
100
AcDbEntity
  8
0
  6
Continuous
 62
     7
100
AcDbLine
 10
11.32180615464005
 20
276.99998
 30
0.0
 11
11.32180615464005
 21
-6.907882136197371
 31
0.0
  0
LINE
  5
2C
330
19
100
AcDbEntity
  8
0
  6
Continuous
 62
     7
100
AcDbLine
 10
404.0000199999999
 20
-6.907882136197371
 30
0.0
 11
404.0000199999999
 21
276.99998
 31
0.0
  0
LINE
  5
236
330
19
100
AcDbEntity
  8
0
  6
Continuous
 62
     7
100
AcDbLine
 10
11.32180615464005
 20
276.99998
 30
0.0
 11
404.0000199999999
 21
276.99998
 31
0.0
  0
LINE
  5
238
330
19
100
AcDbEntity
  8
0
  6
Continuous
 62
     7
100
AcDbLine
 10
11.32180615464005
 20
-6.907882136197371
 30
0.0
 11
404.0000199999999
 21
-6.907882136197371
 31
0.0
  0
MTEXT
  5
323
330
19
100
AcDbEntity
  8
0
  6
Continuous
100
AcDbMText
 10
144.2478588099633
 20
166.822615518982
 30
0.0
 40
4.0
 41
44.65581175458782
 71
     1
 72
     5
  1

 73
     1
 44
1.0
1001
ACAD
1000
MTEXTBEGIN
1070
    73
1070
     1
1070
    44
1040
1.0
1070
    74
1070
     0
1000
MTEXTEND
  0
LINE
  5
FBFA
330
19
100
AcDbEntity
  8
0
  6
Continuous
 62
     3
100
AcDbLine
 10
224.6481107817071
 20
196.3850750729968
 30
0.0
 11
224.6481107817071
 21
146.6357032176663
 31
0.0
  0
LINE
  5
FC00
330
19
100
AcDbEntity
  8
0
  6
Continuous
 62
     3
100
AcDbLine
 10
224.6481107817071
 20
82.04931941606515
 30
0.0
 11
224.6481107817071
 21
52.04931941606513
 31
0.0
  0
LINE
  5
FC01
330
19
100
AcDbEntity
  8
0
  6
Continuous
 62
     3
100
AcDbLine
 10
189.6481107817071
 20
81.04931941606514
 30
0.0
 11
189.6481107817071
 21
53.04931941606515
 31
0.0
  0
LINE
  5
FC02
330
19
100
AcDbEntity
  8
0
  6
Continuous
 62
     3
100
AcDbLine
 10
189.6481107817071
 20
53.04931941606515
 30
0.0
 11
224.6481107817071
 21
52.04931941606513
 31
0.0
  0
LINE
  5
FC11
330
19
100
AcDbEntity
  8
0
  6
Continuous
 62
     3
100
AcDbLine
 10
189.6481107817072
 20
81.04931941606514
 30
0.0
 11
224.6481107817071
 21
82.04931941606515
 31
0.0
  0
ARC
  5
FC12
330
19
100
AcDbEntity
  8
0
  6
Continuous
 62
     3
100
AcDbCircle
 10
187.1481107817071
 20
171.5103891453316
 30
0.0
 40
45.0
100
AcDbArc
 50
273.1847385367204
 51
326.4426902380793
  0
ARC
  5
FC1E
330
19
100
AcDbEntity
  8
0
  6
Continuous
 62
     3
100
AcDbCircle
 10
187.1481107817071
 20
171.5103891453316
 30
0.0
 40
45.0
100
AcDbArc
 50
33.55730976194056
 51
86.81526146327959
  0
LINE
  5
FC21
330
19
100
AcDbEntity
  8
0
  6
Continuous
 62
     3
100
AcDbLine
 10
318.3629370857208
 20
182.2225317881455
 30
0.0
 11
318.3629370857206
 21
160.7982465025177
 31
0.0
  0
LINE
  5
FC22
330
19
100
AcDbEntity
  8
0
  6
Continuous
 62
     3
100
AcDbLine
 10
288.3629370857205
 20
182.2225317881455
 30
0.0
 11
288.3629370857205
 21
160.7982465025177
 31
0.0
  0
LINE
  5
FC2B
330
19
100
AcDbEntity
  8
0
  6
Continuous
 62
     3
100
AcDbLine
 10
294.8685945396985
 20
146.6357032176663
 30
0.0
 11
296.5819964680829
 21
146.6357032176663
 31
0.0
  0
LINE
  5
FC2C
330
19
100
AcDbEntity
  8
0
  6
Continuous
 62
     3
100
AcDbLine
 10
310.1438777033582
 20
146.6357032176663
 30
0.0
 11
311.8572796317427
 21
146.6357032176663
 31
0.0
  0
CIRCLE
  5
FC2F
330
19
100
AcDbEntity
  8
0
  6
Continuous
 62
     3
100
AcDbCircle
 10
303.3629370857207
 20
141.5103891453316
 30
0.0
 40
8.5
  0
CIRCLE
  5
FC3E
330
19
100
AcDbEntity
  8
0
  6
Continuous
 62
     3
100
AcDbCircle
 10
303.3629370857207
 20
201.5103891453316
 30
0.0
 40
8.5
  0
LINE
  5
FC62
330
19
100
AcDbEntity
  8
0
  6
Continuous
 62
     3
100
AcDbLine
 10
189.6481107817071
 20
216.4408910343602
 30
0.0
 11
189.6481107817071
 21
197.0885047913285
 31
0.0
  0
LINE
  5
FC63
330
19
100
AcDbEntity
  8
0
  6
Continuous
 62
     3
100
AcDbLine
 10
189.6481107817071
 20
145.9322734993345
 30
0.0
 11
189.6481107817071
 21
126.579887256303
 31
0.0
  0
LINE
  5
FC65
330
19
100
AcDbEntity
  8
0
  6
Continuous
 62
     3
100
AcDbLine
 10
295.3629370857207
 20
216.4408910343601
 30
0.0
 11
311.3629370857208
 21
216.4408910343601
 31
0.0
  0
LINE
  5
FC66
330
19
100
AcDbEntity
  8
0
  6
Continuous
 62
     3
100
AcDbLine
 10
295.3629370857207
 20
126.579887256303
 30
0.0
 11
311.3629370857207
 21
126.579887256303
 31
0.0
  0
CIRCLE
  5
FC75
330
19
100
AcDbEntity
  8
0
  6
Continuous
 62
     3
100
AcDbCircle
 10
303.3629370857207
 20
171.5103891453316
 30
0.0
 40
1.6
  0
CIRCLE
  5
FC7A
330
19
100
AcDbEntity
  8
0
  6
Continuous
 62
     3
100
AcDbCircle
 10
303.3629370857207
 20
185.8103891453318
 30
0.0
 40
2.1
  0
CIRCLE
  5
FC7B
330
19
100
AcDbEntity
  8
0
  6
Continuous
 62
     3
100
AcDbCircle
 10
303.3629370857207
 20
157.2103891453314
 30
0.0
 40
2.1
  0
CIRCLE
  5
FCCA
330
19
100
AcDbEntity
  8
0
  6
Continuous
 62
     3
100
AcDbCircle
 10
293.3629370857206
 20
181.5103891453316
 30
0.0
 40
2.1
  0
CIRCLE
  5
FD0C
330
19
100
AcDbEntity
  8
0
  6
Continuous
 62
     3
100
AcDbCircle
 10
313.3629370857207
 20
181.5103891453316
 30
0.0
 40
2.1
  0
CIRCLE
  5
FD0F
330
19
100
AcDbEntity
  8
0
  6
Continuous
 62
     3
100
AcDbCircle
 10
293.3629370857206
 20
161.5103891453316
 30
0.0
 40
2.1
  0
CIRCLE
  5
FD13
330
19
100
AcDbEntity
  8
0
  6
Continuous
 62
     3
100
AcDbCircle
 10
313.3629370857207
 20
161.5103891453316
 30
0.0
 40
2.1
  0
ARC
  5
FE40
330
19
100
AcDbEntity
  8
0
  6
Continuous
 62
     3
100
AcDbCircle
 10
295.3629370857207
 20
210.4408910343601
 30
0.0
 40
6.0
100
AcDbArc
 50
89.99999999999992
 51
180.0
  0
ARC
  5
FE41
330
19
100
AcDbEntity
  8
0
  6
Continuous
 62
     3
100
AcDbCircle
 10
311.3629370857208
 20
210.4408910343601
 30
0.0
 40
6.0
100
AcDbArc
 50
0.0
 51
90.0
  0
ARC
  5
FE42
330
19
100
AcDbEntity
  8
0
  6
Continuous
 62
     3
100
AcDbCircle
 10
311.3629370857207
 20
132.579887256303
 30
0.0
 40
6.0
100
AcDbArc
 50
270.0000000000001
 51
0.0
  0
ARC
  5
FE43
330
19
100
AcDbEntity
  8
0
  6
Continuous
 62
     3
100
AcDbCircle
 10
295.3629370857207
 20
132.579887256303
 30
0.0
 40
6.0
100
AcDbArc
 50
180.0
 51
270.0
  0
LINE
  5
FE44
330
19
100
AcDbEntity
  8
0
  6
Continuous
 62
     3
100
AcDbLine
 10
289.3629370857206
 20
210.4408910343601
 30
0.0
 11
288.3629370857205
 21
182.2225317881455
 31
0.0
  0
LINE
  5
FE45
330
19
100
AcDbEntity
  8
0
  6
Continuous
 62
     3
100
AcDbLine
 10
317.3629370857208
 20
210.4408910343601
 30
0.0
 11
318.3629370857208
 21
182.2225317881455
 31
0.0
  0
LINE
  5
FE46
330
19
100
AcDbEntity
  8
0
  6
Continuous
 62
     3
100
AcDbLine
 10
318.3629370857206
 20
160.7982465025176
 30
0.0
 11
317.3629370857207
 21
132.579887256303
 31
0.0
  0
LINE
  5
FE47
330
19
100
AcDbEntity
  8
0
  6
Continuous
 62
     3
100
AcDbLine
 10
289.3629370857206
 20
132.579887256303
 30
0.0
 11
288.3629370857205
 21
160.7982465025176
 31
0.0
  0
ELLIPSE
  5
FE4C
330
19
100
AcDbEntity
  8
0
  6
Continuous
 62
     3
100
AcDbEllipse
 10
294.8685945396985
 20
160.7982465025176
 30
0.0
 11
-0.0000000000000619
 21
-14.16254328485132
 31
0.0
210
0.0
220
0.0
230
1.0
 40
0.4593565804622559
 41
4.712388980384688
 42
6.283185307179585
  0
ELLIPSE
  5
FE4D
330
19
100
AcDbEntity
  8
0
  6
Continuous
 62
     3
100
AcDbEllipse
 10
311.8572796317427
 20
160.7982465025175
 30
0.0
 11
-0.0000000000001633
 21
-14.16254328485132
 31
0.0
210
0.0
220
0.0
230
-1.0
 40
0.4593565804622559
 41
4.712388980384688
 42
6.283185307179585
  0
ELLIPSE
  5
FE4E
330
19
100
AcDbEntity
  8
0
  6
Continuous
 62
     3
100
AcDbEllipse
 10
294.8685945396985
 20
182.2225317881455
 30
0.0
 11
-0.0000000000000619
 21
14.16254328485132
 31
0.0
210
0.0
220
0.0
230
-1.0
 40
0.4593565804622559
 41
4.712388980384688
 42
6.283185307179585
  0
LINE
  5
FE4F
330
19
100
AcDbEntity
  8
0
  6
Continuous
 62
     3
100
AcDbLine
 10
294.8685945396985
 20
196.3850750729968
 30
0.0
 11
296.5819964680829
 21
196.3850750729968
 31
0.0
  0
LINE
  5
FE50
330
19
100
AcDbEntity
  8
0
  6
Continuous
 62
     3
100
AcDbLine
 10
310.1438777033582
 20
196.3850750729968
 30
0.0
 11
311.8572796317427
 21
196.3850750729968
 31
0.0
  0
ELLIPSE
  5
FE51
330
19
100
AcDbEntity
  8
0
  6
Continuous
 62
     3
100
AcDbEllipse
 10
311.8572796317427
 20
182.2225317881457
 30
0.0
 11
-0.0000000000001633
 21
14.16254328485132
 31
0.0
210
0.0
220
0.0
230
1.0
 40
0.4593565804622559
 41
4.712388980384688
 42
6.283185307179585
  0
ELLIPSE
  5
FECF
330
19
100
AcDbEntity
  8
0
  6
Continuous
 62
     3
100
AcDbEllipse
 10
220.689130444204
 20
67.04931941606514
 30
0.0
 11
0.0
 21
-8.5
 31
0.0
210
0.0
220
0.0
230
1.0
 40
0.7047780283278873
 41
0.0
 42
0.721969337225215
  0
ELLIPSE
  5
FED0
330
19
100
AcDbEntity
  8
0
  6
Continuous
 62
     3
100
AcDbEllipse
 10
220.689130444204
 20
67.04931941606514
 30
0.0
 11
10.2440241480534
 21
0.0
 31
0.0
210
0.0
220
0.0
230
1.0
 40
0.8297520463786877
 41
1.570796326794896
 42
4.712388980384688
  0
ELLIPSE
  5
FED1
330
19
100
AcDbEntity
  8
0
  6
Continuous
 62
     3
100
AcDbEllipse
 10
220.689130444204
 20
67.04931941606514
 30
0.0
 11
0.0
 21
-8.5
 31
0.0
210
0.0
220
0.0
230
1.0
 40
0.7047780283278873
 41
2.419623316364576
 42
3.141592653589792
  0
CIRCLE
  5
FF19
330
19
100
AcDbEntity
  8
0
  6
Continuous
 62
     1
100
AcDbCircle
 10
293.3629370857206
 20
181.5103891453316
 30
0.0
 40
2.5
  0
CIRCLE
  5
FF1A
330
19
100
AcDbEntity
  8
0
  6
Continuous
 62
     1
100
AcDbCircle
 10
313.3629370857207
 20
181.5103891453316
 30
0.0
 40
2.5
  0
CIRCLE
  5
FF1B
330
19
100
AcDbEntity
  8
0
  6
Continuous
 62
     1
100
AcDbCircle
 10
313.3629370857207
 20
161.5103891453316
 30
0.0
 40
2.5
  0
CIRCLE
  5
FF1C
330
19
100
AcDbEntity
  8
0
  6
Continuous
 62
     1
100
AcDbCircle
 10
303.3629370857207
 20
157.2103891453314
 30
0.0
 40
2.5
  0
CIRCLE
  5
FF1D
330
19
100
AcDbEntity
  8
0
  6
Continuous
 62
     1
100
AcDbCircle
 10
293.3629370857206
 20
161.5103891453316
 30
0.0
 40
2.5
  0
CIRCLE
  5
FF1E
330
19
100
AcDbEntity
  8
0
  6
Continuous
 62
     1
100
AcDbCircle
 10
303.3629370857207
 20
185.8103891453318
 30
0.0
 40
2.5
  0
CIRCLE
  5
FF1F
330
19
100
AcDbEntity
  8
0
  6
Continuous
 62
     1
100
AcDbCircle
 10
303.3629370857207
 20
171.5103891453316
 30
0.0
 40
2.0
  0
LINE
  5
10B5F
330
19
100
AcDbEntity
  8
0
  6
Continuous
 62
     3
100
AcDbLine
 10
189.6481107817071
 20
145.9322734993346
 30
0.0
 11
189.6481107817071
 21
143.622219610556
 31
0.0
  0
LINE
  5
10B64
330
19
100
AcDbEntity
  8
0
  6
Continuous
 62
     3
100
AcDbLine
 10
189.6481107817071
 20
199.3985586800933
 30
0.0
 11
189.6481107817071
 21
197.0885047913287
 31
0.0
  0
DIMENSION
  5
10B8F
330
19
100
AcDbEntity
  8
0
  6
Continuous
 62
     3
100
AcDbDimension
  2
*D1
 10
224.6481107816985
 20
238.8411052584503
 30
0.0
 11
207.1481107817028
 21
241.3411052584503
 31
0.0
 70
    32
 71
     5
 42
34.99999999999139
  3
STANDARD
100
AcDbAlignedDimension
 13
189.6481107817071
 23
216.4408910343602
 33
0.0
 14
224.6481107816985
 24
196.3850750730101
 34
0.0
100
AcDbRotatedDimension
1001
ACAD
1000
DSTYLE
1002
{
1070
    41
1040
3.0
1070
    42
1040
3.0
1070
    43
1040
7.0
1070
    44
1040
2.0
1070
    47
1040
0.2
1070
    48
1040
0.2
1070
    73
1070
     0
1070
    74
1070
     0
1070
    77
1070
     1
1070
    78
1070
     8
1070
   140
1040
3.0
1070
   141
1040
1.0
1070
   146
1040
0.75
1070
   147
1040
1.0
1070
   172
1070
     1
1070
   173
1070
     1
1070
   176
1070
     4
1070
   177
1070
     4
1070
   178
1070
     7
1070
   283
1070
     2
1070
   284
1070
     8
1070
   341
1005
24C
1070
   343
1005
24C
1070
   344
1005
24C
1002
}
  0
DIMENSION
  5
10C50
330
19
100
AcDbEntity
  8
0
  6
Continuous
 62
     3
100
AcDbDimension
  2
*D2
 10
149.6481107817156
 20
238.8411052584503
 30
0.0
 11
167.1481107817115
 21
241.3411052584503
 31
0.0
 70
    32
 71
     5
 42
34.99999999999139
  3
STANDARD
100
AcDbAlignedDimension
 13
184.6481107817071
 23
216.4408910343602
 33
0.0
 14
149.6481107817156
 24
196.3850750730101
 34
0.0
 50
180.0
100
AcDbRotatedDimension
1001
ACAD
1000
DSTYLE
1002
{
1070
    41
1040
3.0
1070
    42
1040
3.0
1070
    43
1040
7.0
1070
    44
1040
2.0
1070
    47
1040
0.2
1070
    48
1040
0.2
1070
    73
1070
     0
1070
    74
1070
     0
1070
    77
1070
     1
1070
    78
1070
     8
1070
   140
1040
3.0
1070
   141
1040
1.0
1070
   146
1040
0.75
1070
   147
1040
1.0
1070
   172
1070
     1
1070
   173
1070
     1
1070
   176
1070
     4
1070
   177
1070
     4
1070
   178
1070
     7
1070
   283
1070
     2
1070
   284
1070
     8
1070
   341
1005
24C
1070
   343
1005
24C
1070
   344
1005
24C
1002
}
  0
ELLIPSE
  5
10C51
330
19
100
AcDbEntity
  8
0
  6
Continuous
 62
     3
100
AcDbEllipse
 10
153.6070911192103
 20
67.04931941606514
 30
0.0
 11
0.0
 21
-8.5
 31
0.0
210
0.0
220
0.0
230
-1.0
 40
0.7047780283278873
 41
2.419623316364576
 42
3.141592653589792
  0
ELLIPSE
  5
10C52
330
19
100
AcDbEntity
  8
0
  6
Continuous
 62
     3
100
AcDbEllipse
 10
153.6070911192103
 20
67.04931941606514
 30
0.0
 11
0.0
 21
-8.5
 31
0.0
210
0.0
220
0.0
230
-1.0
 40
0.7047780283278873
 41
0.0
 42
0.721969337225215
  0
ARC
  5
10C53
330
19
100
AcDbEntity
  8
0
  6
Continuous
 62
     3
100
AcDbCircle
 10
187.1481107817071
 20
171.5103891453316
 30
0.0
 40
45.0
100
AcDbArc
 50
93.1847385367204
 51
146.4426902380594
  0
ARC
  5
10C54
330
19
100
AcDbEntity
  8
0
  6
Continuous
 62
     3
100
AcDbCircle
 10
187.1481107817071
 20
171.5103891453316
 30
0.0
 40
45.0
100
AcDbArc
 50
213.5573097619208
 51
266.8152614632796
  0
LINE
  5
10C55
330
19
100
AcDbEntity
  8
0
  6
Continuous
 62
     3
100
AcDbLine
 10
184.6481107817071
 20
81.04931941606514
 30
0.0
 11
149.6481107817071
 21
82.04931941606515
 31
0.0
  0
LINE
  5
10C56
330
19
100
AcDbEntity
  8
0
  6
Continuous
 62
     3
100
AcDbLine
 10
184.6481107817071
 20
53.04931941606515
 30
0.0
 11
149.6481107817071
 21
52.04931941606513
 31
0.0
  0
LINE
  5
10C57
330
19
100
AcDbEntity
  8
0
  6
Continuous
 62
     3
100
AcDbLine
 10
184.6481107817071
 20
145.9322734993345
 30
0.0
 11
184.6481107817071
 21
126.579887256303
 31
0.0
  0
ELLIPSE
  5
10C58
330
19
100
AcDbEntity
  8
0
  6
Continuous
 62
     3
100
AcDbEllipse
 10
153.6070911192103
 20
67.04931941606514
 30
0.0
 11
-10.2440241480534
 21
0.0
 31
0.0
210
0.0
220
0.0
230
-1.0
 40
0.8297520463786877
 41
1.570796326794896
 42
4.712388980384688
  0
LINE
  5
10C5A
330
19
100
AcDbEntity
  8
0
  6
Continuous
 62
     3
100
AcDbLine
 10
184.6481107817071
 20
81.04931941606514
 30
0.0
 11
184.6481107817071
 21
53.04931941606515
 31
0.0
  0
LINE
  5
10C63
330
19
100
AcDbEntity
  8
0
  6
Continuous
 62
     3
100
AcDbLine
 10
184.6481107817071
 20
145.9322734993346
 30
0.0
 11
184.6481107817071
 21
143.622219610556
 31
0.0
  0
LINE
  5
10C67
330
19
100
AcDbEntity
  8
0
  6
Continuous
 62
     3
100
AcDbLine
 10
184.6481107817071
 20
216.4408910343602
 30
0.0
 11
184.6481107817071
 21
197.0885047913285
 31
0.0
  0
LINE
  5
10C68
330
19
100
AcDbEntity
  8
0
  6
Continuous
 62
     3
100
AcDbLine
 10
184.6481107817071
 20
199.3985586800933
 30
0.0
 11
184.6481107817071
 21
197.0885047913287
 31
0.0
  0
LINE
  5
10C69
330
19
100
AcDbEntity
  8
0
  6
Continuous
 62
     3
100
AcDbLine
 10
149.6481107817071
 20
82.04931941606515
 30
0.0
 11
149.6481107817071
 21
52.04931941606513
 31
0.0
  0
LINE
  5
10C6A
330
19
100
AcDbEntity
  8
0
  6
Continuous
 62
     3
100
AcDbLine
 10
149.6481107817071
 20
196.3850750729968
 30
0.0
 11
149.6481107817071
 21
146.6357032176663
 31
0.0
  0
CIRCLE
  5
115C2
330
19
100
AcDbEntity
  8
0
  6
Continuous
 62
     3
 48
2.0
100
AcDbCircle
 10
303.3629370857204
 20
201.5103891453316
 30
0.0
 40
6.0
  0
CIRCLE
  5
115C3
330
19
100
AcDbEntity
  8
0
  6
Continuous
 62
     3
 48
2.0
100
AcDbCircle
 10
303.3629370857204
 20
201.5103891453316
 30
0.0
 40
6.5
  0
LWPOLYLINE
  5
115C4
330
19
100
AcDbEntity
  8
0
  6
Continuous
 62
     3
 48
2.0
100
AcDbPolyline
 90
        6
 70
     1
 43
0.0
 10
300.3629370857205
 20
203.2424399529004
 10
303.3629370857204
 20
204.9744907604693
 10
306.3629370857204
 20
203.2424399529004
 10
306.3629370857204
 20
199.7783383377628
 10
303.3629370857204
 20
198.0462875301939
 10
300.3629370857205
 20
199.7783383377628
  0
CIRCLE
  5
115C5
330
19
100
AcDbEntity
  8
0
  6
Continuous
 62
     3
 48
2.0
100
AcDbCircle
 10
303.3629370857204
 20
141.5103891453316
 30
0.0
 40
6.5
  0
CIRCLE
  5
115C6
330
19
100
AcDbEntity
  8
0
  6
Continuous
 62
     3
 48
2.0
100
AcDbCircle
 10
303.3629370857204
 20
141.5103891453316
 30
0.0
 40
6.0
  0
LWPOLYLINE
  5
115C7
330
19
100
AcDbEntity
  8
0
  6
Continuous
 62
     3
 48
2.0
100
AcDbPolyline
 90
        6
 70
     1
 43
0.0
 10
300.3629370857205
 20
143.2424399529004
 10
303.3629370857204
 20
144.9744907604693
 10
306.3629370857204
 20
143.2424399529004
 10
306.3629370857204
 20
139.7783383377627
 10
303.3629370857204
 20
138.0462875301939
 10
300.3629370857205
 20
139.7783383377627
  0
LINE
  5
115DE
330
19
100
AcDbEntity
  8
0
  6
Continuous
 62
     3
 48
2.0
100
AcDbLine
 10
189.6481107817071
 20
205.5103891453315
 30
0.0
 11
184.6481107817071
 21
205.5103891453315
 31
0.0
  0
LINE
  5
115DF
330
19
100
AcDbEntity
  8
0
  6
Continuous
 62
     3
 48
2.0
100
AcDbLine
 10
189.6481107817071
 20
197.5103891453315
 30
0.0
 11
184.6481107817071
 21
197.5103891453315
 31
0.0
  0
LINE
  5
115E0
330
19
100
AcDbEntity
  8
0
  6
Continuous
 62
     3
 48
2.0
100
AcDbLine
 10
189.6481107817071
 20
145.5103891453314
 30
0.0
 11
184.6481107817071
 21
145.5103891453314
 31
0.0
  0
LINE
  5
115E1
330
19
100
AcDbEntity
  8
0
  6
Continuous
 62
     3
 48
2.0
100
AcDbLine
 10
189.6481107817071
 20
137.5103891453314
 30
0.0
 11
184.6481107817071
 21
137.5103891453314
 31
0.0
  0
LINE
  5
115E2
330
19
100
AcDbEntity
  8
0
  6
CENTER1
 62
     1
 48
2.0
100
AcDbLine
 10
187.1481107817071
 20
181.5103891453316
 30
0.0
 11
187.1481107817071
 21
161.5103891453316
 31
0.0
  0
LINE
  5
115E3
330
19
100
AcDbEntity
  8
0
  6
CENTER1
 62
     1
 48
2.0
100
AcDbLine
 10
177.1481107817071
 20
171.5103891453316
 30
0.0
 11
197.1481107817071
 21
171.5103891453316
 31
0.0
  0
LINE
  5
115E4
330
19
100
AcDbEntity
  8
0
  6
Continuous
 62
     3
 48
2.0
100
AcDbLine
 10
184.6481107817071
 20
63.04931941606525
 30
0.0
 11
189.6481107817071
 21
63.04931941606525
 31
0.0
  0
LINE
  5
115E5
330
19
100
AcDbEntity
  8
0
  6
Continuous
 62
     3
 48
2.0
100
AcDbLine
 10
184.6481107817071
 20
71.04931941606526
 30
0.0
 11
189.6481107817071
 21
71.04931941606526
 31
0.0
  0
DIMENSION
  5
115E6
330
19
100
AcDbEntity
  8
0
  6
Continuous
 62
     3
100
AcDbDimension
  2
*D3
 10
224.6481107817071
 20
245.2345601760982
 30
0.0
 11
187.1481107817114
 21
247.7345601760982
 31
0.0
 70
    32
 71
     5
 42
74.99999999999136
  3
STANDARD
100
AcDbAlignedDimension
 13
149.6481107817156
 23
196.3850750730101
 33
0.0
 14
224.6481107817071
 24
196.3850750729971
 34
0.0
100
AcDbRotatedDimension
1001
ACAD
1000
DSTYLE
1002
{
1070
    41
1040
3.0
1070
    42
1040
3.0
1070
    43
1040
7.0
1070
    44
1040
2.0
1070
    47
1040
0.2
1070
    48
1040
0.2
1070
    73
1070
     0
1070
    74
1070
     0
1070
    77
1070
     1
1070
    78
1070
     8
1070
   140
1040
3.0
1070
   141
1040
1.0
1070
   146
1040
0.75
1070
   147
1040
1.0
1070
   172
1070
     1
1070
   173
1070
     1
1070
   176
1070
     4
1070
   177
1070
     4
1070
   178
1070
     7
1070
   283
1070
     2
1070
   284
1070
     8
1070
   341
1005
24C
1070
   343
1005
24C
1070
   344
1005
24C
1002
}
  0
DIMENSION
  5
115F4
330
19
100
AcDbEntity
  8
0
  6
Continuous
 62
     3
100
AcDbDimension
  2
*D4
 10
123.3580922972132
 20
216.4408910343602
 30
0.0
 11
120.8580922972132
 21
171.5103891453316
 31
0.0
 70
    32
 71
     5
 42
89.8610037780571
  3
STANDARD
100
AcDbAlignedDimension
 13
184.6481107817071
 23
126.579887256303
 33
0.0
 14
184.6481107817071
 24
216.4408910343602
 34
0.0
 50
90.0
100
AcDbRotatedDimension
1001
ACAD
1000
DSTYLE
1002
{
1070
    41
1040
3.0
1070
    42
1040
3.0
1070
    43
1040
7.0
1070
    44
1040
2.0
1070
    47
1040
0.2
1070
    48
1040
0.2
1070
    73
1070
     0
1070
    74
1070
     0
1070
    77
1070
     1
1070
    78
1070
     8
1070
   140
1040
3.0
1070
   141
1040
1.0
1070
   146
1040
0.75
1070
   147
1040
1.0
1070
   172
1070
     1
1070
   173
1070
     1
1070
   176
1070
     4
1070
   177
1070
     4
1070
   178
1070
     7
1070
   271
1070
     1
1070
   283
1070
     2
1070
   284
1070
     8
1070
   341
1005
24C
1070
   343
1005
24C
1070
   344
1005
24C
1002
}
  0
DIMENSION
  5
1162D
330
19
100
AcDbEntity
  8
0
  6
Continuous
 62
     3
100
AcDbDimension
  2
*D5
 10
262.6011154083643
 20
181.5103891453316
 30
0.0
 11
260.1011154083642
 21
171.5103891453316
 31
0.0
 70
    32
 71
     5
 42
20.0
  3
STANDARD
100
AcDbAlignedDimension
 13
293.3629370857206
 23
161.5103891453316
 33
0.0
 14
293.3629370857206
 24
181.5103891453316
 34
0.0
 50
90.0
100
AcDbRotatedDimension
1001
ACAD
1000
DSTYLE
1002
{
1070
    41
1040
3.0
1070
    42
1040
3.0
1070
    43
1040
7.0
1070
    44
1040
2.0
1070
    47
1040
0.2
1070
    48
1040
0.2
1070
    73
1070
     0
1070
    74
1070
     0
1070
    77
1070
     1
1070
    78
1070
     8
1070
   140
1040
3.0
1070
   141
1040
1.0
1070
   146
1040
0.75
1070
   147
1040
1.0
1070
   172
1070
     1
1070
   173
1070
     1
1070
   176
1070
     4
1070
   177
1070
     4
1070
   178
1070
     7
1070
   283
1070
     2
1070
   284
1070
     8
1070
   341
1005
24C
1070
   343
1005
24C
1070
   344
1005
24C
1002
}
  0
DIMENSION
  5
1163A
330
19
100
AcDbEntity
  8
0
  6
Continuous
 62
     3
100
AcDbDimension
  2
*D6
 10
313.3629370857207
 20
104.3895655964655
 30
0.0
 11
303.3629370857207
 21
106.8895655964655
 31
0.0
 70
    32
 71
     5
 42
20.0
  3
STANDARD
100
AcDbAlignedDimension
 13
293.3629370857206
 23
161.5103891453316
 33
0.0
 14
313.3629370857207
 24
161.5103891453316
 34
0.0
100
AcDbRotatedDimension
1001
ACAD
1000
DSTYLE
1002
{
1070
    41
1040
3.0
1070
    42
1040
3.0
1070
    43
1040
7.0
1070
    44
1040
2.0
1070
    47
1040
0.2
1070
    48
1040
0.2
1070
    73
1070
     0
1070
    74
1070
     0
1070
    77
1070
     1
1070
    78
1070
     8
1070
   140
1040
3.0
1070
   141
1040
1.0
1070
   146
1040
0.75
1070
   147
1040
1.0
1070
   172
1070
     1
1070
   173
1070
     1
1070
   176
1070
     4
1070
   177
1070
     4
1070
   178
1070
     7
1070
   283
1070
     2
1070
   284
1070
     8
1070
   341
1005
24C
1070
   343
1005
24C
1070
   344
1005
24C
1002
}
  0
DIMENSION
  5
11647
330
19
100
AcDbEntity
  8
0
  6
Continuous
 62
     3
100
AcDbDimension
  2
*D7
 10
341.6193709900057
 20
185.8103891453317
 30
0.0
 11
339.1193709900056
 21
171.5103891453316
 31
0.0
 70
    32
 71
     5
 42
28.60000000000037
  3
STANDARD
100
AcDbAlignedDimension
 13
303.3629370857207
 23
157.2103891453314
 33
0.0
 14
303.3629370857207
 24
185.8103891453318
 34
0.0
 50
90.0
100
AcDbRotatedDimension
1001
ACAD
1000
DSTYLE
1002
{
1070
    41
1040
3.0
1070
    42
1040
3.0
1070
    43
1040
7.0
1070
    44
1040
2.0
1070
    47
1040
0.2
1070
    48
1040
0.2
1070
    73
1070
     0
1070
    74
1070
     0
1070
    77
1070
     1
1070
    78
1070
     8
1070
   140
1040
3.0
1070
   141
1040
1.0
1070
   146
1040
0.75
1070
   147
1040
1.0
1070
   172
1070
     1
1070
   173
1070
     1
1070
   176
1070
     4
1070
   177
1070
     4
1070
   178
1070
     7
1070
   283
1070
     2
1070
   284
1070
     8
1070
   341
1005
24C
1070
   343
1005
24C
1070
   344
1005
24C
1002
}
  0
DIMENSION
  5
11654
330
19
100
AcDbEntity
  8
0
  6
Continuous
 62
     3
100
AcDbDimension
  2
*D8
 10
256.2599125473393
 20
201.5103891453316
 30
0.0
 11
253.7599125473392
 21
171.5103891453316
 31
0.0
 70
    32
 71
     5
 42
60.0
  3
STANDARD
100
AcDbAlignedDimension
 13
303.3629370857204
 23
141.5103891453316
 33
0.0
 14
303.3629370857207
 24
201.5103891453316
 34
0.0
 50
90.0
100
AcDbRotatedDimension
1001
ACAD
1000
DSTYLE
1002
{
1070
    41
1040
3.0
1070
    42
1040
3.0
1070
    43
1040
7.0
1070
    44
1040
2.0
1070
    47
1040
0.2
1070
    48
1040
0.2
1070
    73
1070
     0
1070
    74
1070
     0
1070
    77
1070
     1
1070
    78
1070
     8
1070
   140
1040
3.0
1070
   141
1040
1.0
1070
   146
1040
0.75
1070
   147
1040
1.0
1070
   172
1070
     1
1070
   173
1070
     1
1070
   176
1070
     4
1070
   177
1070
     4
1070
   178
1070
     7
1070
   283
1070
     2
1070
   284
1070
     8
1070
   341
1005
24C
1070
   343
1005
24C
1070
   344
1005
24C
1002
}
  0
DIMENSION
  5
1170D
330
19
100
AcDbEntity
  8
0
  6
Continuous
 62
     3
100
AcDbDimension
  2
*D9
 10
78.90373583990253
 20
104.3895655964655
 30
0.0
 11
68.90373583990253
 21
106.8895655964655
 31
0.0
 70
    32
 71
     5
 42
20.0
  3
STANDARD
100
AcDbAlignedDimension
 13
58.90373583990253
 23
161.5103891453316
 33
0.0
 14
78.90373583990253
 24
161.5103891453316
 34
0.0
100
AcDbRotatedDimension
1001
ACAD
1000
DSTYLE
1002
{
1070
    41
1040
3.0
1070
    42
1040
3.0
1070
    43
1040
7.0
1070
    44
1040
2.0
1070
    47
1040
0.2
1070
    48
1040
0.2
1070
    73
1070
     0
1070
    74
1070
     0
1070
    77
1070
     1
1070
    78
1070
     8
1070
   140
1040
3.0
1070
   141
1040
1.0
1070
   146
1040
0.75
1070
   147
1040
1.0
1070
   172
1070
     1
1070
   173
1070
     1
1070
   176
1070
     4
1070
   177
1070
     4
1070
   178
1070
     7
1070
   283
1070
     2
1070
   284
1070
     8
1070
   341
1005
24C
1070
   343
1005
24C
1070
   344
1005
24C
1002
}
  0
LINE
  5
11711
330
19
100
AcDbEntity
  8
0
  6
Continuous
 62
     3
100
AcDbLine
 10
54.90373583990241
 20
132.579887256303
 30
0.0
 11
53.90373583990243
 21
160.7982465025176
 31
0.0
  0
LINE
  5
11712
330
19
100
AcDbEntity
  8
0
  6
Continuous
 62
     3
100
AcDbLine
 10
83.90373583990259
 20
160.7982465025176
 30
0.0
 11
82.90373583990254
 21
132.579887256303
 31
0.0
  0
CIRCLE
  5
11713
330
19
100
AcDbEntity
  8
0
  6
Continuous
 62
     3
100
AcDbCircle
 10
68.90373583990243
 20
141.5103891453316
 30
0.0
 40
8.5
  0
LINE
  5
11714
330
19
100
AcDbEntity
  8
0
  6
Continuous
 62
     3
100
AcDbLine
 10
60.90373583990242
 20
126.579887256303
 30
0.0
 11
76.90373583990254
 21
126.579887256303
 31
0.0
  0
ARC
  5
11717
330
19
100
AcDbEntity
  8
0
  6
Continuous
 62
     3
100
AcDbCircle
 10
60.90373583990242
 20
132.579887256303
 30
0.0
 40
6.0
100
AcDbArc
 50
180.0
 51
270.0
  0
ARC
  5
11718
330
19
100
AcDbEntity
  8
0
  6
Continuous
 62
     3
100
AcDbCircle
 10
76.90373583990254
 20
132.579887256303
 30
0.0
 40
6.0
100
AcDbArc
 50
270.0000000000001
 51
0.0
  0
ELLIPSE
  5
11719
330
19
100
AcDbEntity
  8
0
  6
Continuous
 62
     3
100
AcDbEllipse
 10
77.39807838592451
 20
182.2225317881457
 30
0.0
 11
-0.0000000000001633
 21
14.16254328485132
 31
0.0
210
0.0
220
0.0
230
1.0
 40
0.4593565804622559
 41
4.712388980384688
 42
6.283185307179585
  0
ELLIPSE
  5
1171A
330
19
100
AcDbEntity
  8
0
  6
Continuous
 62
     3
100
AcDbEllipse
 10
60.40939329388038
 20
182.2225317881455
 30
0.0
 11
-0.0000000000000619
 21
14.16254328485132
 31
0.0
210
0.0
220
0.0
230
-1.0
 40
0.4593565804622559
 41
4.712388980384688
 42
6.283185307179585
  0
ELLIPSE
  5
1171B
330
19
100
AcDbEntity
  8
0
  6
Continuous
 62
     3
100
AcDbEllipse
 10
77.39807838592451
 20
160.7982465025175
 30
0.0
 11
-0.0000000000001633
 21
-14.16254328485132
 31
0.0
210
0.0
220
0.0
230
-1.0
 40
0.4593565804622559
 41
4.712388980384688
 42
6.283185307179585
  0
ELLIPSE
  5
1171C
330
19
100
AcDbEntity
  8
0
  6
Continuous
 62
     3
100
AcDbEllipse
 10
60.40939329388038
 20
160.7982465025176
 30
0.0
 11
-0.0000000000000619
 21
-14.16254328485132
 31
0.0
210
0.0
220
0.0
230
1.0
 40
0.4593565804622559
 41
4.712388980384688
 42
6.283185307179585
  0
DIMENSION
  5
1171D
330
19
100
AcDbEntity
  8
0
  6
Continuous
 62
     3
100
AcDbDimension
  2
*D10
 10
107.1601697441875
 20
185.8103891453318
 30
0.0
 11
104.6601697441875
 21
171.5103891453316
 31
0.0
 70
    32
 71
     5
 42
28.60000000000037
  3
STANDARD
100
AcDbAlignedDimension
 13
68.90373583990243
 23
157.2103891453314
 33
0.0
 14
68.90373583990243
 24
185.8103891453318
 34
0.0
 50
90.0
100
AcDbRotatedDimension
1001
ACAD
1000
DSTYLE
1002
{
1070
    41
1040
3.0
1070
    42
1040
3.0
1070
    43
1040
7.0
1070
    44
1040
2.0
1070
    47
1040
0.2
1070
    48
1040
0.2
1070
    73
1070
     0
1070
    74
1070
     0
1070
    77
1070
     1
1070
    78
1070
     8
1070
   140
1040
3.0
1070
   141
1040
1.0
1070
   146
1040
0.75
1070
   147
1040
1.0
1070
   172
1070
     1
1070
   173
1070
     1
1070
   176
1070
     4
1070
   177
1070
     4
1070
   178
1070
     7
1070
   283
1070
     2
1070
   284
1070
     8
1070
   341
1005
24C
1070
   343
1005
24C
1070
   344
1005
24C
1002
}
  0
LINE
  5
11722
330
19
100
AcDbEntity
  8
0
  6
Continuous
 62
     3
100
AcDbLine
 10
82.90373583990264
 20
210.4408910343601
 30
0.0
 11
83.90373583990266
 21
182.2225317881455
 31
0.0
  0
CIRCLE
  5
11724
330
19
100
AcDbEntity
  8
0
  6
Continuous
 62
     1
100
AcDbCircle
 10
68.90373583990243
 20
185.8103891453318
 30
0.0
 40
2.5
  0
LINE
  5
11725
330
19
100
AcDbEntity
  8
0
  6
Continuous
 62
     3
100
AcDbLine
 10
54.90373583990241
 20
210.4408910343601
 30
0.0
 11
53.90373583990243
 21
182.2225317881455
 31
0.0
  0
CIRCLE
  5
11726
330
19
100
AcDbEntity
  8
0
  6
Continuous
 62
     3
100
AcDbCircle
 10
68.90373583990243
 20
185.8103891453318
 30
0.0
 40
2.1
  0
CIRCLE
  5
11727
330
19
100
AcDbEntity
  8
0
  6
Continuous
 62
     1
100
AcDbCircle
 10
58.90373583990253
 20
161.5103891453316
 30
0.0
 40
2.5
  0
CIRCLE
  5
11728
330
19
100
AcDbEntity
  8
0
  6
Continuous
 62
     3
100
AcDbCircle
 10
58.90373583990253
 20
161.5103891453316
 30
0.0
 40
2.1
  0
LINE
  5
11729
330
19
100
AcDbEntity
  8
0
  6
Continuous
 62
     3
100
AcDbLine
 10
53.90373583990243
 20
182.2225317881455
 30
0.0
 11
53.90373583990243
 21
160.7982465025177
 31
0.0
  0
LINE
  5
1172B
330
19
100
AcDbEntity
  8
0
  6
Continuous
 62
     3
100
AcDbLine
 10
60.40939329388038
 20
146.6357032176663
 30
0.0
 11
62.12279522226481
 21
146.6357032176663
 31
0.0
  0
CIRCLE
  5
1172C
330
19
100
AcDbEntity
  8
0
  6
Continuous
 62
     1
100
AcDbCircle
 10
58.90373583990253
 20
181.5103891453316
 30
0.0
 40
2.5
  0
CIRCLE
  5
1172D
330
19
100
AcDbEntity
  8
0
  6
Continuous
 62
     3
100
AcDbCircle
 10
58.90373583990253
 20
181.5103891453316
 30
0.0
 40
2.1
  0
CIRCLE
  5
1172E
330
19
100
AcDbEntity
  8
0
  6
Continuous
 62
     1
100
AcDbCircle
 10
78.90373583990253
 20
161.5103891453316
 30
0.0
 40
2.5
  0
CIRCLE
  5
1172F
330
19
100
AcDbEntity
  8
0
  6
Continuous
 62
     3
100
AcDbCircle
 10
78.90373583990253
 20
161.5103891453316
 30
0.0
 40
2.1
  0
LINE
  5
11730
330
19
100
AcDbEntity
  8
0
  6
Continuous
 62
     3
100
AcDbLine
 10
83.90373583990266
 20
182.2225317881455
 30
0.0
 11
83.90373583990259
 21
160.7982465025177
 31
0.0
  0
LINE
  5
11731
330
19
100
AcDbEntity
  8
0
  6
Continuous
 62
     3
100
AcDbLine
 10
75.68467645754004
 20
146.6357032176663
 30
0.0
 11
77.39807838592458
 21
146.6357032176663
 31
0.0
  0
CIRCLE
  5
11732
330
19
100
AcDbEntity
  8
0
  6
Continuous
 62
     1
100
AcDbCircle
 10
68.90373583990243
 20
157.2103891453314
 30
0.0
 40
2.5
  0
CIRCLE
  5
11733
330
19
100
AcDbEntity
  8
0
  6
Continuous
 62
     3
100
AcDbCircle
 10
68.90373583990243
 20
157.2103891453314
 30
0.0
 40
2.1
  0
CIRCLE
  5
11735
330
19
100
AcDbEntity
  8
0
  6
Continuous
 62
     3
100
AcDbCircle
 10
78.90373583990253
 20
181.5103891453316
 30
0.0
 40
2.1
  0
CIRCLE
  5
11736
330
19
100
AcDbEntity
  8
0
  6
Continuous
 62
     1
100
AcDbCircle
 10
78.90373583990253
 20
181.5103891453316
 30
0.0
 40
2.5
  0
CIRCLE
  5
11737
330
19
100
AcDbEntity
  8
0
  6
Continuous
 62
     1
100
AcDbCircle
 10
68.90373583990253
 20
171.5103891453316
 30
0.0
 40
2.0
  0
CIRCLE
  5
11738
330
19
100
AcDbEntity
  8
0
  6
Continuous
 62
     3
100
AcDbCircle
 10
68.90373583990253
 20
171.5103891453316
 30
0.0
 40
1.6
  0
CIRCLE
  5
11739
330
19
100
AcDbEntity
  8
0
  6
Continuous
 62
     3
100
AcDbCircle
 10
68.90373583990243
 20
201.5103891453316
 30
0.0
 40
8.5
  0
LINE
  5
1173A
330
19
100
AcDbEntity
  8
0
  6
Continuous
 62
     3
100
AcDbLine
 10
60.90373583990242
 20
216.4408910343601
 30
0.0
 11
76.90373583990265
 21
216.4408910343601
 31
0.0
  0
LINE
  5
1173C
330
19
100
AcDbEntity
  8
0
  6
Continuous
 62
     3
100
AcDbLine
 10
60.40939329388038
 20
196.3850750729968
 30
0.0
 11
62.12279522226481
 21
196.3850750729968
 31
0.0
  0
ARC
  5
1173D
330
19
100
AcDbEntity
  8
0
  6
Continuous
 62
     3
100
AcDbCircle
 10
60.90373583990242
 20
210.4408910343601
 30
0.0
 40
6.0
100
AcDbArc
 50
89.99999999999992
 51
180.0
  0
LINE
  5
11741
330
19
100
AcDbEntity
  8
0
  6
Continuous
 62
     3
100
AcDbLine
 10
75.68467645754004
 20
196.3850750729968
 30
0.0
 11
77.39807838592458
 21
196.3850750729968
 31
0.0
  0
ARC
  5
11743
330
19
100
AcDbEntity
  8
0
  6
Continuous
 62
     3
100
AcDbCircle
 10
76.90373583990265
 20
210.4408910343601
 30
0.0
 40
6.0
100
AcDbArc
 50
0.0
 51
90.0
  0
DIMENSION
  5
117AD
330
19
100
AcDbEntity
  8
0
  6
Continuous
 62
     3
100
AcDbDimension
  2
*D11
 10
32.58787164327237
 20
181.5103891453316
 30
0.0
 11
30.08787164327233
 21
171.5103891453316
 31
0.0
 70
    32
 71
     5
 42
19.99999999999997
  3
STANDARD
100
AcDbAlignedDimension
 13
58.90373583990253
 23
161.5103891453316
 33
0.0
 14
58.90373583990253
 24
181.5103891453316
 34
0.0
 50
90.0
100
AcDbRotatedDimension
1001
ACAD
1000
DSTYLE
1002
{
1070
    41
1040
3.0
1070
    42
1040
3.0
1070
    43
1040
7.0
1070
    44
1040
2.0
1070
    47
1040
0.2
1070
    48
1040
0.2
1070
    73
1070
     0
1070
    74
1070
     0
1070
    77
1070
     1
1070
    78
1070
     8
1070
   140
1040
3.0
1070
   141
1040
1.0
1070
   146
1040
0.75
1070
   147
1040
1.0
1070
   172
1070
     1
1070
   173
1070
     1
1070
   176
1070
     4
1070
   177
1070
     4
1070
   178
1070
     7
1070
   283
1070
     2
1070
   284
1070
     8
1070
   341
1005
24C
1070
   343
1005
24C
1070
   344
1005
24C
1002
}
  0
CIRCLE
  5
117BA
330
19
100
AcDbEntity
  8
0
  6
Continuous
 62
     3
100
AcDbCircle
 10
68.90373583990243
 20
201.5103891453316
 30
0.0
 40
4.0
  0
CIRCLE
  5
117BB
330
19
100
AcDbEntity
  8
0
  6
Continuous
 62
     3
100
AcDbCircle
 10
68.90373583990243
 20
141.5103891453316
 30
0.0
 40
4.0
  0
CIRCLE
  5
117BC
330
19
100
AcDbEntity
  8
0
  6
Continuous
 62
     3
100
AcDbCircle
 10
68.90373583990243
 20
201.5103891453316
 30
0.0
 40
3.399999999999999
  0
CIRCLE
  5
117BD
330
19
100
AcDbEntity
  8
0
  6
Continuous
 62
     3
100
AcDbCircle
 10
68.90373583990243
 20
141.5103891453316
 30
0.0
 40
3.399999999999999
  0
DIMENSION
  5
117C4
330
19
100
AcDbEntity
  8
0
  6
Continuous
 62
     3
100
AcDbDimension
  2
*D12
 10
83.90373583990252
 20
238.8411052584503
 30
0.0
 11
68.90373583990245
 21
241.3411052584503
 31
0.0
 70
    32
 71
     5
 42
30.00000000000009
  3
STANDARD
100
AcDbAlignedDimension
 13
53.90373583990243
 23
182.2225317881456
 33
0.0
 14
83.90373583990252
 24
182.2225317881495
 34
0.0
100
AcDbRotatedDimension
1001
ACAD
1000
DSTYLE
1002
{
1070
    41
1040
3.0
1070
    42
1040
3.0
1070
    43
1040
7.0
1070
    44
1040
2.0
1070
    47
1040
0.2
1070
    48
1040
0.2
1070
    73
1070
     0
1070
    74
1070
     0
1070
    77
1070
     1
1070
    78
1070
     8
1070
   140
1040
3.0
1070
   141
1040
1.0
1070
   146
1040
0.75
1070
   147
1040
1.0
1070
   172
1070
     1
1070
   173
1070
     1
1070
   176
1070
     4
1070
   177
1070
     4
1070
   178
1070
     7
1070
   283
1070
     2
1070
   284
1070
     8
1070
   341
1005
24C
1070
   343
1005
24C
1070
   344
1005
24C
1002
}
  0
DIMENSION
  5
117D1
330
19
100
AcDbEntity
  8
0
  6
Continuous
 62
     3
100
AcDbDimension
  2
*D13
 10
123.3580922972132
 20
82.04931941606515
 30
0.0
 11
120.8580922972132
 21
67.04931941606516
 31
0.0
 70
    32
 71
     5
 42
30.0
  3
STANDARD
100
AcDbAlignedDimension
 13
149.6481107817071
 23
52.04931941606513
 33
0.0
 14
149.6481107817071
 24
82.04931941606515
 34
0.0
 50
90.0
100
AcDbRotatedDimension
1001
ACAD
1000
DSTYLE
1002
{
1070
    41
1040
3.0
1070
    42
1040
3.0
1070
    43
1040
7.0
1070
    44
1040
2.0
1070
    47
1040
0.2
1070
    48
1040
0.2
1070
    73
1070
     0
1070
    74
1070
     0
1070
    77
1070
     1
1070
    78
1070
     8
1070
   140
1040
3.0
1070
   141
1040
1.0
1070
   146
1040
0.75
1070
   147
1040
1.0
1070
   172
1070
     1
1070
   173
1070
     1
1070
   176
1070
     4
1070
   177
1070
     4
1070
   178
1070
     7
1070
   283
1070
     2
1070
   284
1070
     8
1070
   341
1005
24C
1070
   343
1005
24C
1070
   344
1005
24C
1002
}
  0
DIMENSION
  5
117E7
330
19
100
AcDbEntity
  8
0
  6
Continuous
 62
     3
100
AcDbDimension
  2
*D14
 10
318.3629370857206
 20
238.8411052584503
 30
0.0
 11
303.3629370857207
 21
241.3411052584503
 31
0.0
 70
    32
 71
     5
 42
30.00000000000011
  3
STANDARD
100
AcDbAlignedDimension
 13
288.3629370857205
 23
182.2225317881456
 33
0.0
 14
318.3629370857206
 24
182.2225317881495
 34
0.0
100
AcDbRotatedDimension
1001
ACAD
1000
DSTYLE
1002
{
1070
    41
1040
3.0
1070
    42
1040
3.0
1070
    43
1040
7.0
1070
    44
1040
2.0
1070
    47
1040
0.2
1070
    48
1040
0.2
1070
    73
1070
     0
1070
    74
1070
     0
1070
    77
1070
     1
1070
    78
1070
     8
1070
   140
1040
3.0
1070
   141
1040
1.0
1070
   146
1040
0.75
1070
   147
1040
1.0
1070
   172
1070
     1
1070
   173
1070
     1
1070
   176
1070
     4
1070
   177
1070
     4
1070
   178
1070
     7
1070
   283
1070
     2
1070
   284
1070
     8
1070
   341
1005
24C
1070
   343
1005
24C
1070
   344
1005
24C
1002
}
  0
ARC
  5
117F4
330
19
100
AcDbEntity
  8
0
  6
Continuous
 62
     3
100
AcDbCircle
 10
187.1481107817071
 20
171.5103891453316
 30
0.0
 40
25.7
100
AcDbArc
 50
275.5823471139682
 51
84.41765288603177
  0
ARC
  5
117F5
330
19
100
AcDbEntity
  8
0
  6
Continuous
 62
     3
100
AcDbCircle
 10
187.1481107817071
 20
171.5103891453316
 30
0.0
 40
25.7
100
AcDbArc
 50
95.58234711396822
 51
264.4176528860318
  0
VIEWPORT
  5
85C7
102
{ACAD_XDICTIONARY
360
11DC3
102
}
330
16
100
AcDbEntity
 67
     1
  8
0
  6
Continuous
 62
     3
100
AcDbViewport
 10
256.8589975864643
 20
110.7171004418116
 30
0.0
 40
650.4799075771765
 41
305.5070855197249
 68
     1
 69
     1
 12
256.8589975864643
 22
110.7171004418116
 13
0.0
 23
0.0
 14
10.0
 24
10.0
 15
10.0
 25
10.0
 16
0.0
 26
0.0
 36
1.0
 17
0.0
 27
0.0
 37
0.0
 42
50.0
 43
0.0
 44
0.0
 45
305.5070855197249
 50
0.0
 51
0.0
 72
   100
 90
    32800
  1

281
     0
 71
     1
 74
     0
110
0.0
120
0.0
130
0.0
111
1.0
121
0.0
131
0.0
112
0.0
122
1.0
132
0.0
 79
     0
146
0.0
  0
VIEWPORT
  5
11A38
102
{ACAD_XDICTIONARY
360
11DC5
102
}
330
16
100
AcDbEntity
 67
     1
  8
DEFPOINTS
100
AcDbViewport
 10
261.7378705616309
 20
112.7170964339854
 30
0.0
 40
385.000001
 41
272.9999801750001
 68
     2
 69
     2
 12
204.3114110585721
 22
140.9450067908355
 13
0.0
 23
0.0
 14
1.0
 24
1.0
 15
5.0
 25
5.0
 16
0.0
 26
0.0
 36
1.0
 17
0.0
 27
0.0
 37
0.0
 42
50.0
 43
0.0
 44
0.0
 45
272.9999820643761
 50
0.0
 51
0.0
 72
   100
 90
    49152
  1

281
     0
 71
     1
 74
     0
110
0.0
120
0.0
130
0.0
111
1.0
121
0.0
131
0.0
112
0.0
122
1.0
132
0.0
 79
     0
146
0.0
  0
LINE
  5
11A39
330
16
100
AcDbEntity
 67
     1
  8
0
  6
Continuous
 62
     7
100
AcDbLine
 10
69.23787006163078
 20
110.7170960214854
 30
0.0
 11
64.23787006163078
 21
110.7170960214854
 31
0.0
  0
MTEXT
  5
11A3A
330
16
100
AcDbEntity
 67
     1
  8
実線
100
AcDbMText
 10
420.7378710616307
 20
-11.78289365351461
 30
0.0
 40
2.7
 41
67.0
 71
     5
 72
     5
  1
ポールクランプ
 73
     1
 44
1.0
1001
ACAD
1000
MTEXTBEGIN
1070
    73
1070
     1
1070
    44
1040
1.0
1070
    74
1070
     0
1000
MTEXTEND
  0
MTEXT
  5
11A3B
330
16
100
AcDbEntity
 67
     1
  8
実線
100
AcDbMText
 10
353.7378875616308
 20
-2.282894478514585
 30
0.0
 40
2.7
 41
31.0000165
 71
     5
 72
     5
  1
１／３　　（Ａ３）
 73
     1
 44
1.0
1001
ACAD
1000
MTEXTBEGIN
1070
    73
1070
     1
1070
    44
1040
1.0
1070
    74
1070
     0
1000
MTEXTEND
  0
MTEXT
  5
11A3C
330
16
100
AcDbEntity
 67
     1
  8
実線
100
AcDbMText
 10
334.7378751866309
 20
-2.282894478514585
 30
0.0
 40
2.7
 41
7.000008249999997
 71
     5
 72
     5
  1
尺度
 73
     1
 44
1.0
1001
ACAD
1000
MTEXTBEGIN
1070
    73
1070
     1
1070
    44
1040
1.0
1070
    74
1070
     0
1000
MTEXTEND
  0
MTEXT
  5
11A3D
330
16
100
AcDbEntity
 67
     1
  8
実線
100
AcDbMText
 10
334.7378751866309
 20
-7.282894478514585
 30
0.0
 40
2.7
 41
7.000008249999997
 71
     5
 72
     5
  1
製図
 73
     1
 44
1.0
1001
ACAD
1000
MTEXTBEGIN
1070
    73
1070
     1
1070
    44
1040
1.0
1070
    74
1070
     0
1000
MTEXTEND
  0
LINE
  5
11A3E
330
16
100
AcDbEntity
 67
     1
  8
0
  6
Continuous
 62
     7
100
AcDbLine
 10
338.2378793116309
 20
0.2171055214854149
 30
0.0
 11
338.2378793116309
 21
-9.782894478514585
 31
0.0
  0
LINE
  5
11A3F
330
16
100
AcDbEntity
 67
     1
  8
0
  6
Continuous
 62
     6
100
AcDbLine
 10
387.2378710616307
 20
-7.782893653514611
 30
0.0
 11
454.2378710616307
 21
-7.782893653514611
 31
0.0
  0
LINE
  5
11A40
330
16
100
AcDbEntity
 67
     1
  8
0
  6
Continuous
 62
     6
100
AcDbLine
 10
387.2378710616307
 20
-15.78289365351461
 30
0.0
 11
454.2378710616307
 21
-15.78289365351461
 31
0.0
  0
MTEXT
  5
11A41
330
16
100
AcDbEntity
 67
     1
  8
実線
100
AcDbMText
 10
370.4926382614936
 20
-9.210871119054935
 30
0.0
 40
2.1
 41
2.57553777832397
 71
     7
 72
     5
  1
投\P影\P法
 73
     1
 44
1.0
1001
ACAD
1000
MTEXTBEGIN
1070
    73
1070
     1
1070
    44
1040
1.0
1070
    74
1070
     0
1000
MTEXTEND
  0
LINE
  5
11A42
330
16
100
AcDbEntity
 67
     1
  8
0
  6
Continuous
 62
     7
100
AcDbLine
 10
331.2378710616308
 20
-4.782894478514585
 30
0.0
 11
369.2378958116308
 21
-4.782894478514585
 31
0.0
  0
LINE
  5
11A43
330
16
100
AcDbEntity
 67
     1
  8
0
  6
Continuous
 62
     6
100
AcDbLine
 10
398.7378710616308
 20
-25.78289406601457
 30
0.0
 11
401.7378710616307
 21
-25.78289406601457
 31
0.0
  0
LINE
  5
11A44
330
16
100
AcDbEntity
 67
     1
  8
0
  6
Continuous
 62
     6
100
AcDbLine
 10
414.7378710616306
 20
-25.78289406601457
 30
0.0
 11
417.7378710616308
 21
-25.78289406601457
 31
0.0
  0
LINE
  5
11A45
330
16
100
AcDbEntity
 67
     1
  8
実線
100
AcDbLine
 10
374.0568524314046
 20
-4.776214785735568
 30
0.0
 11
386.4948524314048
 21
-4.776214785735568
 31
0.0
  0
LINE
  5
11A46
330
16
100
AcDbEntity
 67
     1
  8
実線
100
AcDbLine
 10
385.5228524314048
 20
-6.666214785735553
 30
0.0
 11
385.5228524314048
 21
-2.886214785735582
 31
0.0
  0
LINE
  5
11A47
330
16
100
AcDbEntity
 67
     1
  8
実線
100
AcDbLine
 10
380.6088524314048
 20
-5.910214785735582
 30
0.0
 11
380.6088524314048
 21
-3.642214785735553
 31
0.0
  0
CIRCLE
  5
11A48
330
16
100
AcDbEntity
 67
     1
  8
実線
100
AcDbCircle
 10
376.3248524314047
 20
-4.776214785735568
 30
0.0
 40
1.134
  0
CIRCLE
  5
11A49
330
16
100
AcDbEntity
 67
     1
  8
実線
100
AcDbCircle
 10
376.3248524314047
 20
-4.776214785735568
 30
0.0
 40
1.889999999999998
  0
LINE
  5
11A4A
330
16
100
AcDbEntity
 67
     1
  8
実線
100
AcDbLine
 10
376.3248524314047
 20
-2.508214785735539
 30
0.0
 11
376.3248524314047
 21
-7.04421478573554
 31
0.0
  0
LINE
  5
11A4B
330
16
100
AcDbEntity
 67
     1
  8
実線
100
AcDbLine
 10
380.6088524314048
 20
-3.642214785735553
 30
0.0
 11
385.5228524314048
 21
-2.886214785735582
 31
0.0
  0
LINE
  5
11A4C
330
16
100
AcDbEntity
 67
     1
  8
実線
100
AcDbLine
 10
380.6088524314048
 20
-5.910214785735582
 30
0.0
 11
385.5228524314048
 21
-6.666214785735553
 31
0.0
  0
LINE
  5
11A4D
330
16
100
AcDbEntity
 67
     1
  8
0
  6
Continuous
 62
     7
100
AcDbLine
 10
387.2378710616307
 20
-9.782894478514585
 30
0.0
 11
331.2378710616308
 21
-9.782894478514585
 31
0.0
  0
TEXT
  5
11A4E
330
16
100
AcDbEntity
 67
     1
  8
実線
100
AcDbText
 10
385.2819170279174
 20
-31.85300779218481
 30
0.0
 40
2.2
  1
Ｄｒａｗｉｎｇ　Ｓｈｅｅｔ　Ａ３（２９７ｍｍ×４２０ｍｍ）
 41
0.8
100
AcDbText
  0
LINE
  5
11A4F
330
16
100
AcDbEntity
 67
     1
  8
0
  6
Continuous
 62
     7
100
AcDbLine
 10
464.2378710616307
 20
-37.7828934785146
 30
0.0
 11
444.2378710616307
 21
-37.7828934785146
 31
0.0
  0
LINE
  5
11A50
330
16
100
AcDbEntity
 67
     1
  8
0
  6
Continuous
 62
     7
100
AcDbLine
 10
464.2378710616307
 20
259.2171065214854
 30
0.0
 11
444.2378710616307
 21
259.2171065214854
 31
0.0
  0
LINE
  5
11A51
330
16
100
AcDbEntity
 67
     1
  8
0
  6
Continuous
 62
     7
100
AcDbLine
 10
464.2378710616307
 20
259.2171065214854
 30
0.0
 11
464.2378710616307
 21
239.2171065214854
 31
0.0
  0
LINE
  5
11A52
330
16
100
AcDbEntity
 67
     1
  8
0
  6
Continuous
 62
     7
100
AcDbLine
 10
464.2378710616307
 20
-37.7828934785146
 30
0.0
 11
464.2378710616307
 21
-17.78289347851458
 31
0.0
  0
LINE
  5
11A53
330
16
100
AcDbEntity
 67
     1
  8
0
  6
Continuous
 62
     7
100
AcDbLine
 10
44.23787106163078
 20
259.2171065214854
 30
0.0
 11
44.23787106163078
 21
239.2171065214854
 31
0.0
  0
LINE
  5
11A54
330
16
100
AcDbEntity
 67
     1
  8
0
  6
Continuous
 62
     7
100
AcDbLine
 10
44.23787106163078
 20
259.2171065214854
 30
0.0
 11
64.2378710616308
 21
259.2171065214854
 31
0.0
  0
LINE
  5
11A55
330
16
100
AcDbEntity
 67
     1
  8
0
  6
Continuous
 62
     7
100
AcDbLine
 10
44.23787106163078
 20
-37.7828934785146
 30
0.0
 11
64.2378710616308
 21
-37.7828934785146
 31
0.0
  0
LINE
  5
11A56
330
16
100
AcDbEntity
 67
     1
  8
0
  6
Continuous
 62
     7
100
AcDbLine
 10
44.23787106163078
 20
-37.7828934785146
 30
0.0
 11
44.23787106163078
 21
-17.78289347851458
 31
0.0
  0
LINE
  5
11A57
330
16
100
AcDbEntity
 67
     1
  8
0
  6
Continuous
 62
     7
100
AcDbLine
 10
69.23787006163078
 20
-27.78289447851459
 30
0.0
 11
454.2378710616307
 21
-27.78289447851459
 31
0.0
  0
LINE
  5
11A58
330
16
100
AcDbEntity
 67
     1
  8
0
  6
Continuous
 62
     7
100
AcDbLine
 10
69.23787006163078
 20
249.2170865214853
 30
0.0
 11
454.2378710616307
 21
249.2170865214853
 31
0.0
  0
TEXT
  5
11A59
330
16
100
AcDbEntity
 67
     1
  8
実線
100
AcDbText
 10
346.2288956435448
 20
-26.40169350351457
 30
0.0
 40
2.475
  1
日本フォームサービス株式会社
 41
0.9200000000000001
100
AcDbText
  0
CIRCLE
  5
11A5A
330
16
100
AcDbEntity
 67
     1
  8
実線
100
AcDbCircle
 10
349.2089113254235
 20
-8.465745850275402
 30
0.0
 40
0.20625
  0
CIRCLE
  5
11A5B
330
16
100
AcDbEntity
 67
     1
  8
実線
100
AcDbCircle
 10
344.0421942779237
 20
-8.465745850275402
 30
0.0
 40
0.20625
  0
LINE
  5
11A5C
330
16
100
AcDbEntity
 67
     1
  8
実線
100
AcDbLine
 10
378.6201442732192
 20
-22.51620509546925
 30
0.0
 11
378.9070380232192
 21
-22.36558732046925
 31
0.0
  0
LINE
  5
11A5D
330
16
100
AcDbEntity
 67
     1
  8
実線
100
AcDbLine
 10
378.0212025232192
 20
-22.74081217046925
 30
0.0
 11
378.6201442732192
 21
-22.51620509546925
 31
0.0
  0
LINE
  5
11A5E
330
16
100
AcDbEntity
 67
     1
  8
実線
100
AcDbLine
 10
377.3888070232192
 20
-22.86667499546926
 30
0.0
 11
378.0212025232192
 21
-22.74081217046925
 31
0.0
  0
LINE
  5
11A5F
330
16
100
AcDbEntity
 67
     1
  8
実線
100
AcDbLine
 10
376.7421802732192
 20
-22.88996969546927
 30
0.0
 11
377.3888070232192
 21
-22.86667499546926
 31
0.0
  0
LINE
  5
11A60
330
16
100
AcDbEntity
 67
     1
  8
実線
100
AcDbLine
 10
376.1009572732191
 20
-22.80998924546928
 30
0.0
 11
376.7421802732192
 21
-22.88996969546927
 31
0.0
  0
LINE
  5
11A61
330
16
100
AcDbEntity
 67
     1
  8
実線
100
AcDbLine
 10
375.4846245232192
 20
-22.62916327046927
 30
0.0
 11
376.1009572732191
 21
-22.80998924546928
 31
0.0
  0
LINE
  5
11A62
330
16
100
AcDbEntity
 67
     1
  8
実線
100
AcDbLine
 10
374.9119177732191
 20
-22.35298627046925
 30
0.0
 11
375.4846245232192
 21
-22.62916327046927
 31
0.0
  0
LINE
  5
11A63
330
16
100
AcDbEntity
 67
     1
  8
実線
100
AcDbLine
 10
374.4002362732192
 20
-21.98984849546927
 30
0.0
 11
374.9119177732191
 21
-22.35298627046925
 31
0.0
  0
LINE
  5
11A64
330
16
100
AcDbEntity
 67
     1
  8
実線
100
AcDbLine
 10
373.9651230232191
 20
-21.55078597046927
 30
0.0
 11
374.4002362732192
 21
-21.98984849546927
 31
0.0
  0
LINE
  5
11A65
330
16
100
AcDbEntity
 67
     1
  8
実線
100
AcDbLine
 10
373.6197945232192
 20
-21.04913729546926
 30
0.0
 11
373.9651230232191
 21
-21.55078597046927
 31
0.0
  0
LINE
  5
11A66
330
16
100
AcDbEntity
 67
     1
  8
実線
100
AcDbLine
 10
373.3747530232192
 20
-20.5001459954693
 30
0.0
 11
373.6197945232192
 21
-21.04913729546926
 31
0.0
  0
LINE
  5
11A67
330
16
100
AcDbEntity
 67
     1
  8
実線
100
AcDbLine
 10
373.2374317732192
 20
-19.92049274546927
 30
0.0
 11
373.3747530232192
 21
-20.5001459954693
 31
0.0
  0
LINE
  5
11A68
330
16
100
AcDbEntity
 67
     1
  8
実線
100
AcDbLine
 10
373.2120217732191
 20
-19.32778964546927
 30
0.0
 11
373.2374317732192
 21
-19.92049274546927
 31
0.0
  0
LINE
  5
11A69
330
16
100
AcDbEntity
 67
     1
  8
実線
100
AcDbLine
 10
373.2992820232191
 20
-18.74004562046927
 30
0.0
 11
373.2120217732191
 21
-19.32778964546927
 31
0.0
  0
LINE
  5
11A6A
330
16
100
AcDbEntity
 67
     1
  8
実線
100
AcDbLine
 10
373.4965560232192
 20
-18.17512027046926
 30
0.0
 11
373.2992820232191
 21
-18.74004562046927
 31
0.0
  0
LINE
  5
11A6B
330
16
100
AcDbEntity
 67
     1
  8
実線
100
AcDbLine
 10
373.7978625232192
 20
-17.65017607046926
 30
0.0
 11
373.4965560232192
 21
-18.17512027046926
 31
0.0
  0
LINE
  5
11A6C
330
16
100
AcDbEntity
 67
     1
  8
実線
100
AcDbLine
 10
374.1940440232192
 20
-17.18116604546927
 30
0.0
 11
373.7978625232192
 21
-17.65017607046926
 31
0.0
  0
LINE
  5
11A6D
330
16
100
AcDbEntity
 67
     1
  8
実線
100
AcDbLine
 10
374.6730555232192
 20
-16.7823387704693
 30
0.0
 11
374.1940440232192
 21
-17.18116604546927
 31
0.0
  0
LINE
  5
11A6E
330
16
100
AcDbEntity
 67
     1
  8
実線
100
AcDbLine
 10
375.2203440232193
 20
-16.46581267046927
 30
0.0
 11
374.6730555232192
 21
-16.7823387704693
 31
0.0
  0
LINE
  5
11A6F
330
16
100
AcDbEntity
 67
     1
  8
実線
100
AcDbLine
 10
375.8192940232192
 20
-16.24120642046924
 30
0.0
 11
375.2203440232193
 21
-16.46581267046927
 31
0.0
  0
LINE
  5
11A70
330
16
100
AcDbEntity
 67
     1
  8
実線
100
AcDbLine
 10
376.4516895232192
 20
-16.11534359546929
 30
0.0
 11
375.8192940232192
 21
-16.24120642046924
 31
0.0
  0
LINE
  5
11A71
330
16
100
AcDbEntity
 67
     1
  8
実線
100
AcDbLine
 10
377.0983162732191
 20
-16.09204807046925
 30
0.0
 11
376.4516895232192
 21
-16.11534359546929
 31
0.0
  0
LINE
  5
11A72
330
16
100
AcDbEntity
 67
     1
  8
実線
100
AcDbLine
 10
377.7395392732192
 20
-16.1720285204693
 30
0.0
 11
377.0983162732191
 21
-16.09204807046925
 31
0.0
  0
LINE
  5
11A73
330
16
100
AcDbEntity
 67
     1
  8
実線
100
AcDbLine
 10
378.3558637732192
 20
-16.35285449546925
 30
0.0
 11
377.7395392732192
 21
-16.1720285204693
 31
0.0
  0
LINE
  5
11A74
330
16
100
AcDbEntity
 67
     1
  8
実線
100
AcDbLine
 10
378.9285705232192
 20
-16.6290323204693
 30
0.0
 11
378.3558637732192
 21
-16.35285449546925
 31
0.0
  0
ARC
  5
11A75
330
16
100
AcDbEntity
 67
     1
  8
実線
100
AcDbCircle
 10
363.0515940232192
 20
-17.73788429546929
 30
0.0
 40
1.753125
100
AcDbArc
 50
270.0
 51
90.0
  0
LINE
  5
11A76
330
16
100
AcDbEntity
 67
     1
  8
実線
100
AcDbLine
 10
354.6131887732191
 20
-22.94399152046928
 30
0.0
 11
355.1861842732192
 21
-22.99725929546927
 31
0.0
  0
LINE
  5
11A77
330
16
100
AcDbEntity
 67
     1
  8
実線
100
AcDbLine
 10
354.0576090232191
 20
-22.78580602046927
 30
0.0
 11
354.6131887732191
 21
-22.94399152046928
 31
0.0
  0
LINE
  5
11A78
330
16
100
AcDbEntity
 67
     1
  8
実線
100
AcDbLine
 10
353.5363162732192
 20
-22.52751089546926
 30
0.0
 11
354.0576090232191
 21
-22.78580602046927
 31
0.0
  0
LINE
  5
11A79
330
16
100
AcDbEntity
 67
     1
  8
実線
100
AcDbLine
 10
353.0651505232191
 20
-22.17695272046925
 30
0.0
 11
353.5363162732192
 21
-22.52751089546926
 31
0.0
  0
LINE
  5
11A7A
330
16
100
AcDbEntity
 67
     1
  8
実線
100
AcDbLine
 10
352.6584420232192
 20
-21.74478307046926
 30
0.0
 11
353.0651505232191
 21
-22.17695272046925
 31
0.0
  0
LINE
  5
11A7B
330
16
100
AcDbEntity
 67
     1
  8
実線
100
AcDbLine
 10
352.3285245232191
 20
-21.24413429546926
 30
0.0
 11
352.6584420232192
 21
-21.74478307046926
 31
0.0
  0
LINE
  5
11A7C
330
16
100
AcDbEntity
 67
     1
  8
実線
100
AcDbLine
 10
352.0854465232192
 20
-20.69021692046929
 30
0.0
 11
352.3285245232191
 21
-21.24413429546926
 31
0.0
  0
LINE
  5
11A7D
330
16
100
AcDbEntity
 67
     1
  8
実線
100
AcDbLine
 10
351.9365752732192
 20
-20.09986259546927
 30
0.0
 11
352.0854465232192
 21
-20.69021692046929
 31
0.0
  0
LINE
  5
11A7E
330
16
100
AcDbEntity
 67
     1
  8
実線
100
AcDbLine
 10
351.8864482732192
 20
-19.49100929546925
 30
0.0
 11
351.9365752732192
 21
-20.09986259546927
 31
0.0
  0
LINE
  5
11A7F
330
16
100
AcDbEntity
 67
     1
  8
実線
100
AcDbLine
 10
351.9365752732192
 20
-18.88215517046925
 30
0.0
 11
351.8864482732192
 21
-19.49100929546925
 31
0.0
  0
LINE
  5
11A80
330
16
100
AcDbEntity
 67
     1
  8
実線
100
AcDbLine
 10
352.0854465232192
 20
-18.29180084546929
 30
0.0
 11
351.9365752732192
 21
-18.88215517046925
 31
0.0
  0
LINE
  5
11A81
330
16
100
AcDbEntity
 67
     1
  8
実線
100
AcDbLine
 10
352.3285245232191
 20
-17.73788429546929
 30
0.0
 11
352.0854465232192
 21
-18.29180084546929
 31
0.0
  0
LINE
  5
11A82
330
16
100
AcDbEntity
 67
     1
  8
実線
100
AcDbLine
 10
352.6584420232192
 20
-17.23723469546926
 30
0.0
 11
352.3285245232191
 21
-17.73788429546929
 31
0.0
  0
LINE
  5
11A83
330
16
100
AcDbEntity
 67
     1
  8
実線
100
AcDbLine
 10
353.0651505232191
 20
-16.8050658704693
 30
0.0
 11
352.6584420232192
 21
-17.23723469546926
 31
0.0
  0
LINE
  5
11A84
330
16
100
AcDbEntity
 67
     1
  8
実線
100
AcDbLine
 10
353.5363162732192
 20
-16.45450769546929
 30
0.0
 11
353.0651505232191
 21
-16.8050658704693
 31
0.0
  0
LINE
  5
11A85
330
16
100
AcDbEntity
 67
     1
  8
実線
100
AcDbLine
 10
354.0576090232191
 20
-16.19621174546925
 30
0.0
 11
353.5363162732192
 21
-16.45450769546929
 31
0.0
  0
LINE
  5
11A86
330
16
100
AcDbEntity
 67
     1
  8
実線
100
AcDbLine
 10
354.6131887732191
 20
-16.03802707046927
 30
0.0
 11
354.0576090232191
 21
-16.19621174546925
 31
0.0
  0
LINE
  5
11A87
330
16
100
AcDbEntity
 67
     1
  8
実線
100
AcDbLine
 10
355.1861842732192
 20
-15.98475929546928
 30
0.0
 11
354.6131887732191
 21
-16.03802707046927
 31
0.0
  0
LINE
  5
11A88
330
16
100
AcDbEntity
 67
     1
  8
実線
100
AcDbLine
 10
355.7591715232192
 20
-16.03802707046927
 30
0.0
 11
355.1861842732192
 21
-15.98475929546928
 31
0.0
  0
LINE
  5
11A89
330
16
100
AcDbEntity
 67
     1
  8
実線
100
AcDbLine
 10
356.3147512732192
 20
-16.19621174546925
 30
0.0
 11
355.7591715232192
 21
-16.03802707046927
 31
0.0
  0
LINE
  5
11A8A
330
16
100
AcDbEntity
 67
     1
  8
実線
100
AcDbLine
 10
356.8360440232193
 20
-16.45450769546929
 30
0.0
 11
356.3147512732192
 21
-16.19621174546925
 31
0.0
  0
LINE
  5
11A8B
330
16
100
AcDbEntity
 67
     1
  8
実線
100
AcDbLine
 10
357.3072097732193
 20
-16.8050658704693
 30
0.0
 11
356.8360440232193
 21
-16.45450769546929
 31
0.0
  0
LINE
  5
11A8C
330
16
100
AcDbEntity
 67
     1
  8
実線
100
AcDbLine
 10
357.7139182732192
 20
-17.23723469546926
 30
0.0
 11
357.3072097732193
 21
-16.8050658704693
 31
0.0
  0
LINE
  5
11A8D
330
16
100
AcDbEntity
 67
     1
  8
実線
100
AcDbLine
 10
358.0438357732191
 20
-17.73788429546929
 30
0.0
 11
357.7139182732192
 21
-17.23723469546926
 31
0.0
  0
LINE
  5
11A8E
330
16
100
AcDbEntity
 67
     1
  8
実線
100
AcDbLine
 10
358.2869137732192
 20
-18.29180084546929
 30
0.0
 11
358.0438357732191
 21
-17.73788429546929
 31
0.0
  0
LINE
  5
11A8F
330
16
100
AcDbEntity
 67
     1
  8
実線
100
AcDbLine
 10
358.4357850232192
 20
-18.88215517046925
 30
0.0
 11
358.2869137732192
 21
-18.29180084546929
 31
0.0
  0
LINE
  5
11A90
330
16
100
AcDbEntity
 67
     1
  8
実線
100
AcDbLine
 10
358.4859120232191
 20
-19.49100929546925
 30
0.0
 11
358.4357850232192
 21
-18.88215517046925
 31
0.0
  0
LINE
  5
11A91
330
16
100
AcDbEntity
 67
     1
  8
実線
100
AcDbLine
 10
358.4357850232192
 20
-20.09986259546927
 30
0.0
 11
358.4859120232191
 21
-19.49100929546925
 31
0.0
  0
LINE
  5
11A92
330
16
100
AcDbEntity
 67
     1
  8
実線
100
AcDbLine
 10
358.2869137732192
 20
-20.69021692046929
 30
0.0
 11
358.4357850232192
 21
-20.09986259546927
 31
0.0
  0
LINE
  5
11A93
330
16
100
AcDbEntity
 67
     1
  8
実線
100
AcDbLine
 10
358.0438357732191
 20
-21.24413429546926
 30
0.0
 11
358.2869137732192
 21
-20.69021692046929
 31
0.0
  0
LINE
  5
11A94
330
16
100
AcDbEntity
 67
     1
  8
実線
100
AcDbLine
 10
357.7139182732192
 20
-21.74478307046926
 30
0.0
 11
358.0438357732191
 21
-21.24413429546926
 31
0.0
  0
LINE
  5
11A95
330
16
100
AcDbEntity
 67
     1
  8
実線
100
AcDbLine
 10
357.3072097732193
 20
-22.17695272046925
 30
0.0
 11
357.7139182732192
 21
-21.74478307046926
 31
0.0
  0
LINE
  5
11A96
330
16
100
AcDbEntity
 67
     1
  8
実線
100
AcDbLine
 10
356.8360440232193
 20
-22.52751089546926
 30
0.0
 11
357.3072097732193
 21
-22.17695272046925
 31
0.0
  0
LINE
  5
11A97
330
16
100
AcDbEntity
 67
     1
  8
実線
100
AcDbLine
 10
356.3147512732192
 20
-22.78580602046927
 30
0.0
 11
356.8360440232193
 21
-22.52751089546926
 31
0.0
  0
LINE
  5
11A98
330
16
100
AcDbEntity
 67
     1
  8
実線
100
AcDbLine
 10
355.7591715232192
 20
-22.94399152046928
 30
0.0
 11
356.3147512732192
 21
-22.78580602046927
 31
0.0
  0
LINE
  5
11A99
330
16
100
AcDbEntity
 67
     1
  8
実線
100
AcDbLine
 10
355.1861842732192
 20
-22.99725929546927
 30
0.0
 11
355.7591715232192
 21
-22.94399152046928
 31
0.0
  0
ARC
  5
11A9A
330
16
100
AcDbEntity
 67
     1
  8
実線
100
AcDbCircle
 10
339.9807395083164
 20
-16.24054582247928
 30
0.0
 40
5.227200980100001
100
AcDbArc
 50
90.0
 51
180.0
  0
LINE
  5
11A9B
330
16
100
AcDbEntity
 67
     1
  8
0
  6
Continuous
 62
     7
100
AcDbLine
 10
331.2378710616308
 20
0.2171055214854149
 30
0.0
 11
331.2378710616308
 21
-27.78289200351461
 31
0.0
  0
LINE
  5
11A9C
330
16
100
AcDbEntity
 67
     1
  8
実線
100
AcDbLine
 10
335.9408979883165
 20
-12.92342481527928
 30
0.0
 11
336.6636237283164
 21
-12.20070168887927
 31
0.0
  0
LINE
  5
11A9D
330
16
100
AcDbEntity
 67
     1
  8
実線
100
AcDbLine
 10
335.6640916123164
 20
-13.2926493940793
 30
0.0
 11
337.0328470003163
 21
-11.9238861652793
 31
0.0
  0
LINE
  5
11A9E
330
16
100
AcDbEntity
 67
     1
  8
実線
100
AcDbLine
 10
335.4991799863163
 20
-13.54996484807928
 30
0.0
 11
337.2901559203163
 21
-11.75898368687931
 31
0.0
  0
LINE
  5
11A9F
330
16
100
AcDbEntity
 67
     1
  8
実線
100
AcDbLine
 10
335.3773208863163
 20
-13.76422516247928
 30
0.0
 11
337.5044123143164
 21
-11.63712785387932
 31
0.0
  0
LINE
  5
11AA0
330
16
100
AcDbEntity
 67
     1
  8
実線
100
AcDbLine
 10
335.2803824623163
 20
-13.95357982907931
 30
0.0
 11
337.6937676343164
 21
-11.54018420267929
 31
0.0
  0
LINE
  5
11AA1
330
16
100
AcDbEntity
 67
     1
  8
実線
100
AcDbLine
 10
335.2003017583164
 20
-14.12605456007933
 30
0.0
 11
337.8662456323163
 21
-11.46011133947932
 31
0.0
  0
LINE
  5
11AA2
330
16
100
AcDbEntity
 67
     1
  8
実線
100
AcDbLine
 10
335.1326748583165
 20
-14.28609900947928
 30
0.0
 11
338.0262894283163
 21
-11.3924779054793
 31
0.0
  0
LINE
  5
11AA3
330
16
100
AcDbEntity
 67
     1
  8
実線
100
AcDbLine
 10
335.0747444143162
 20
-14.43644046887929
 30
0.0
 11
338.1766367683165
 21
-11.33454484787931
 31
0.0
  0
LINE
  5
11AA4
330
16
100
AcDbEntity
 67
     1
  8
実線
100
AcDbLine
 10
335.0246743723165
 20
-14.5789104184793
 30
0.0
 11
338.3191041043162
 21
-11.28447937967932
 31
0.0
  0
LINE
  5
11AA5
330
16
100
AcDbEntity
 67
     1
  8
実線
100
AcDbLine
 10
334.9811644663164
 20
-14.71483068647931
 30
0.0
 11
338.4550243723163
 21
-11.24096359307928
 31
0.0
  0
LINE
  5
11AA6
330
16
100
AcDbEntity
 67
     1
  8
実線
100
AcDbLine
 10
334.9432215283164
 20
-14.84517483887928
 30
0.0
 11
338.5853711383163
 21
-11.2030284958793
 31
0.0
  0
LINE
  5
11AA7
330
16
100
AcDbEntity
 67
     1
  8
実線
100
AcDbLine
 10
334.9101398863163
 20
-14.97067664387928
 30
0.0
 11
338.7108827443165
 21
-11.16993705287931
 31
0.0
  0
LINE
  5
11AA8
330
16
100
AcDbEntity
 67
     1
  8
実線
100
AcDbLine
 10
334.8812988103164
 20
-15.09191044007932
 30
0.0
 11
338.8321080463163
 21
-11.14110773807929
 31
0.0
  0
LINE
  5
11AA9
330
16
100
AcDbEntity
 67
     1
  8
実線
100
AcDbLine
 10
334.8562539883165
 20
-15.20936235707931
 30
0.0
 11
338.9495501623164
 21
-11.11606618307932
 31
0.0
  0
LINE
  5
11AAA
330
16
100
AcDbEntity
 67
     1
  8
実線
100
AcDbLine
 10
334.8346199143164
 20
-15.32339568527929
 30
0.0
 11
339.0635945983164
 21
-11.09443406927929
 31
0.0
  0
LINE
  5
11AAB
330
16
100
AcDbEntity
 67
     1
  8
実線
100
AcDbLine
 10
334.8160764223164
 20
-15.43435476647929
 30
0.0
 11
339.1745549863164
 21
-11.07588731027929
 31
0.0
  0
LINE
  5
11AAC
330
16
100
AcDbEntity
 67
     1
  8
実線
100
AcDbLine
 10
334.8003621523164
 20
-15.54248005187927
 30
0.0
 11
339.2826665503164
 21
-11.06016650627928
 31
0.0
  0
LINE
  5
11AAD
330
16
100
AcDbEntity
 67
     1
  8
実線
100
AcDbLine
 10
334.7872353463164
 20
-15.64802114027933
 30
0.0
 11
339.3882102523164
 21
-11.04703643327926
 31
0.0
  0
LINE
  5
11AAE
330
16
100
AcDbEntity
 67
     1
  8
実線
100
AcDbLine
 10
334.7764999843164
 20
-15.7511551030793
 30
0.0
 11
339.4913429083165
 21
-11.03630499167926
 31
0.0
  0
LINE
  5
11AAF
330
16
100
AcDbEntity
 67
     1
  8
実線
100
AcDbLine
 10
334.7679927163164
 20
-15.8520701194793
 30
0.0
 11
339.5922605383164
 21
-11.02780033727928
 31
0.0
  0
LINE
  5
11AB0
330
16
100
AcDbEntity
 67
     1
  8
実線
100
AcDbLine
 10
334.7615763283163
 20
-15.95090732387931
 30
0.0
 11
339.6910938223164
 21
-11.02137610847931
 31
0.0
  0
LINE
  5
11AB1
330
16
100
AcDbEntity
 67
     1
  8
実線
100
AcDbLine
 10
334.7570940043163
 20
-16.04778432827927
 30
0.0
 11
339.7879734403164
 21
-11.01689966507931
 31
0.0
  0
LINE
  5
11AB2
330
16
100
AcDbEntity
 67
     1
  8
実線
100
AcDbLine
 10
334.7544477343164
 20
-16.14282789227932
 30
0.0
 11
339.8830235383164
 21
-11.01425796887933
 31
0.0
  0
LINE
  5
11AB3
330
16
100
AcDbEntity
 67
     1
  8
実線
100
AcDbLine
 10
334.7535395083164
 20
-16.2361504006793
 30
0.0
 11
339.9763421263163
 21
-11.01334647587927
 31
0.0
  0
LINE
  5
11AB4
330
16
100
AcDbEntity
 67
     1
  8
実線
100
AcDbLine
 10
334.7535395083164
 20
-16.3285646830793
 30
0.0
 11
340.0687590223164
 21
-11.01334451567928
 31
0.0
  0
LINE
  5
11AB5
330
16
100
AcDbEntity
 67
     1
  8
実線
100
AcDbLine
 10
334.7535395083164
 20
-16.42096720427927
 30
0.0
 11
340.1611563163165
 21
-11.01334451567928
 31
0.0
  0
LINE
  5
11AB6
330
16
100
AcDbEntity
 67
     1
  8
実線
100
AcDbLine
 10
334.7535395083164
 20
-16.51338017987931
 30
0.0
 11
340.2535732123163
 21
-11.01334451567928
 31
0.0
  0
LINE
  5
11AB7
330
16
100
AcDbEntity
 67
     1
  8
実線
100
AcDbLine
 10
334.7535395083164
 20
-16.60578074087929
 30
0.0
 11
340.3459835743165
 21
-11.01334451567928
 31
0.0
  0
LINE
  5
11AB8
330
16
100
AcDbEntity
 67
     1
  8
実線
100
AcDbLine
 10
334.7535395083164
 20
-16.6981911028793
 30
0.0
 11
340.4383874023164
 21
-11.01334451567928
 31
0.0
  0
LINE
  5
11AB9
330
16
100
AcDbEntity
 67
     1
  8
実線
100
AcDbLine
 10
334.7535395083164
 20
-16.79060146487931
 30
0.0
 11
340.5307977643165
 21
-11.01334451567928
 31
0.0
  0
LINE
  5
11ABA
330
16
100
AcDbEntity
 67
     1
  8
実線
100
AcDbLine
 10
334.7535395083164
 20
-16.88300659967931
 30
0.0
 11
340.6231950583165
 21
-11.01334451567928
 31
0.0
  0
LINE
  5
11ABB
330
16
100
AcDbEntity
 67
     1
  8
実線
100
AcDbLine
 10
334.7535395083164
 20
-16.97540716067929
 30
0.0
 11
340.7155988863165
 21
-11.01334451567928
 31
0.0
  0
LINE
  5
11ABC
330
16
100
AcDbEntity
 67
     1
  8
実線
100
AcDbLine
 10
334.7535395083164
 20
-17.06781948287928
 30
0.0
 11
340.8080092483165
 21
-11.01334451567928
 31
0.0
  0
LINE
  5
11ABD
330
16
100
AcDbEntity
 67
     1
  8
実線
100
AcDbLine
 10
334.7535395083164
 20
-17.1602298448793
 30
0.0
 11
340.9004261443164
 21
-11.01334451567928
 31
0.0
  0
LINE
  5
11ABE
330
16
100
AcDbEntity
 67
     1
  8
実線
100
AcDbLine
 10
334.7535395083164
 20
-17.25263497967931
 30
0.0
 11
340.9928234383165
 21
-11.01334451567928
 31
0.0
  0
LINE
  5
11ABF
330
16
100
AcDbEntity
 67
     1
  8
実線
100
AcDbLine
 10
334.7535395083164
 20
-17.34503554067927
 30
0.0
 11
341.0852403343164
 21
-11.01334451567928
 31
0.0
  0
LINE
  5
11AC0
330
16
100
AcDbEntity
 67
     1
  8
実線
100
AcDbLine
 10
334.7535395083164
 20
-17.43744590267929
 30
0.0
 11
341.1776376283165
 21
-11.01334451567928
 31
0.0
  0
LINE
  5
11AC1
330
16
100
AcDbEntity
 67
     1
  8
実線
100
AcDbLine
 10
334.7535395083164
 20
-17.52985887827928
 30
0.0
 11
341.2700545243164
 21
-11.01334451567928
 31
0.0
  0
LINE
  5
11AC2
330
16
100
AcDbEntity
 67
     1
  8
実線
100
AcDbLine
 10
334.7535395083164
 20
-17.6222633596793
 30
0.0
 11
341.3624518183165
 21
-11.01334451567928
 31
0.0
  0
LINE
  5
11AC3
330
16
100
AcDbEntity
 67
     1
  8
実線
100
AcDbLine
 10
334.7535395083164
 20
-17.71467372167931
 30
0.0
 11
341.4548621803163
 21
-11.01334451567928
 31
0.0
  0
LINE
  5
11AC4
330
16
100
AcDbEntity
 67
     1
  8
実線
100
AcDbLine
 10
334.7535395083164
 20
-17.80707428267929
 30
0.0
 11
341.5472790763163
 21
-11.01334451567928
 31
0.0
  0
LINE
  5
11AC5
330
16
100
AcDbEntity
 67
     1
  8
実線
100
AcDbLine
 10
334.7535395083164
 20
-17.89948464467929
 30
0.0
 11
341.6396763703164
 21
-11.01334451567928
 31
0.0
  0
LINE
  5
11AC6
330
16
100
AcDbEntity
 67
     1
  8
実線
100
AcDbLine
 10
334.7535395083164
 20
-17.99189566007928
 30
0.0
 11
341.7320932663163
 21
-11.01334451567928
 31
0.0
  0
LINE
  5
11AC7
330
16
100
AcDbEntity
 67
     1
  8
実線
100
AcDbLine
 10
334.7535395083164
 20
-18.0843021016793
 30
0.0
 11
341.8244905603164
 21
-11.01334451567928
 31
0.0
  0
LINE
  5
11AC8
330
16
100
AcDbEntity
 67
     1
  8
実線
100
AcDbLine
 10
334.7535395083164
 20
-18.17670266267928
 30
0.0
 11
341.9169074563164
 21
-11.01334451567928
 31
0.0
  0
LINE
  5
11AC9
330
16
100
AcDbEntity
 67
     1
  8
実線
100
AcDbLine
 10
334.7535395083164
 20
-18.26911302467929
 30
0.0
 11
342.0093047503164
 21
-11.01334451567928
 31
0.0
  0
LINE
  5
11ACA
330
16
100
AcDbEntity
 67
     1
  8
実線
100
AcDbLine
 10
334.7535395083164
 20
-18.36152404007928
 30
0.0
 11
342.1017216463164
 21
-11.01334451567928
 31
0.0
  0
LINE
  5
11ACB
330
16
100
AcDbEntity
 67
     1
  8
実線
100
AcDbLine
 10
334.7535395083164
 20
-18.4539285214793
 30
0.0
 11
342.1941189403164
 21
-11.01334451567928
 31
0.0
  0
LINE
  5
11ACC
330
16
100
AcDbEntity
 67
     1
  8
実線
100
AcDbLine
 10
334.7535395083164
 20
-18.54633888347931
 30
0.0
 11
342.2865358363164
 21
-11.01334451567928
 31
0.0
  0
LINE
  5
11ACD
330
16
100
AcDbEntity
 67
     1
  8
実線
100
AcDbLine
 10
334.7535395083164
 20
-18.63874140467929
 30
0.0
 11
342.3789461983164
 21
-11.01334451567928
 31
0.0
  0
LINE
  5
11ACE
330
16
100
AcDbEntity
 67
     1
  8
実線
100
AcDbLine
 10
334.7535395083164
 20
-18.73115242007927
 30
0.0
 11
342.4713434923163
 21
-11.01334451567928
 31
0.0
  0
LINE
  5
11ACF
330
16
100
AcDbEntity
 67
     1
  8
実線
100
AcDbLine
 10
334.7535395083164
 20
-18.8235569014793
 30
0.0
 11
342.5637473203165
 21
-11.01334451567928
 31
0.0
  0
LINE
  5
11AD0
330
16
100
AcDbEntity
 67
     1
  8
実線
100
AcDbLine
 10
338.7357642163164
 20
-14.93374516907929
 30
0.0
 11
342.6561576823163
 21
-11.01334451567928
 31
0.0
  0
LINE
  5
11AD1
330
16
100
AcDbEntity
 67
     1
  8
実線
100
AcDbLine
 10
334.8153642163163
 20
-18.85414647587928
 30
0.0
 11
338.6739395083164
 21
-14.99556857027929
 31
0.0
  0
LINE
  5
11AD2
330
16
100
AcDbEntity
 67
     1
  8
実線
100
AcDbLine
 10
338.8281615103164
 20
-14.93374516907929
 30
0.0
 11
342.7485549763164
 21
-11.01334451567928
 31
0.0
  0
LINE
  5
11AD3
330
16
100
AcDbEntity
 67
     1
  8
実線
100
AcDbLine
 10
334.9077615103164
 20
-18.85414647587928
 30
0.0
 11
338.6739395083164
 21
-15.08797305167926
 31
0.0
  0
LINE
  5
11AD4
330
16
100
AcDbEntity
 67
     1
  8
実線
100
AcDbLine
 10
338.9205784063164
 20
-14.93374516907929
 30
0.0
 11
342.8409914743164
 21
-11.01334451567928
 31
0.0
  0
LINE
  5
11AD5
330
16
100
AcDbEntity
 67
     1
  8
実線
100
AcDbLine
 10
335.0001784063163
 20
-18.85414647587928
 30
0.0
 11
338.6739395083164
 21
-15.1803860272793
 31
0.0
  0
LINE
  5
11AD6
330
16
100
AcDbEntity
 67
     1
  8
実線
100
AcDbLine
 10
339.0129887683164
 20
-14.93374516907929
 30
0.0
 11
342.9333887683164
 21
-11.01334451567928
 31
0.0
  0
LINE
  5
11AD7
330
16
100
AcDbEntity
 67
     1
  8
実線
100
AcDbLine
 10
335.0925953023164
 20
-18.85414647587928
 30
0.0
 11
338.6739395083164
 21
-15.27279638927931
 31
0.0
  0
LINE
  5
11AD8
330
16
100
AcDbEntity
 67
     1
  8
実線
100
AcDbLine
 10
339.1053860623165
 20
-14.93374516907929
 30
0.0
 11
343.0257860623165
 21
-11.01334451567928
 31
0.0
  0
LINE
  5
11AD9
330
16
100
AcDbEntity
 67
     1
  8
実線
100
AcDbLine
 10
335.1849925963163
 20
-18.85414647587928
 30
0.0
 11
338.6739395083164
 21
-15.36519695027929
 31
0.0
  0
LINE
  5
11ADA
330
16
100
AcDbEntity
 67
     1
  8
実線
100
AcDbLine
 10
339.1977898903164
 20
-14.93374516907929
 30
0.0
 11
343.1182029583163
 21
-11.01334451567928
 31
0.0
  0
LINE
  5
11ADB
330
16
100
AcDbEntity
 67
     1
  8
実線
100
AcDbLine
 10
335.2773898903164
 20
-18.85414647587928
 30
0.0
 11
338.6739395083164
 21
-15.45759947147932
 31
0.0
  0
LINE
  5
11ADC
330
16
100
AcDbEntity
 67
     1
  8
実線
100
AcDbLine
 10
339.2902002523164
 20
-14.93374516907929
 30
0.0
 11
343.2106002523164
 21
-11.01334451567928
 31
0.0
  0
LINE
  5
11ADD
330
16
100
AcDbEntity
 67
     1
  8
実線
100
AcDbLine
 10
335.3698067863164
 20
-18.85414647587928
 30
0.0
 11
338.6739395083164
 21
-15.55001048687931
 31
0.0
  0
LINE
  5
11ADE
330
16
100
AcDbEntity
 67
     1
  8
実線
100
AcDbLine
 10
339.3826171483163
 20
-14.93374516907929
 30
0.0
 11
343.3030106143162
 21
-11.01334451567928
 31
0.0
  0
LINE
  5
11ADF
330
16
100
AcDbEntity
 67
     1
  8
実線
100
AcDbLine
 10
335.4622171483165
 20
-18.85414647587928
 30
0.0
 11
338.6739395083164
 21
-15.64242280907931
 31
0.0
  0
LINE
  5
11AE0
330
16
100
AcDbEntity
 67
     1
  8
実線
100
AcDbLine
 10
339.4750144423164
 20
-14.93374516907929
 30
0.0
 11
343.3954144423164
 21
-11.01334451567928
 31
0.0
  0
LINE
  5
11AE1
330
16
100
AcDbEntity
 67
     1
  8
実線
100
AcDbLine
 10
335.5546209763163
 20
-18.85414647587928
 30
0.0
 11
338.6739395083164
 21
-15.73482533027928
 31
0.0
  0
LINE
  5
11AE2
330
16
100
AcDbEntity
 67
     1
  8
実線
100
AcDbLine
 10
339.5674313383164
 20
-14.93374516907929
 30
0.0
 11
343.4878248043164
 21
-11.01334451567928
 31
0.0
  0
LINE
  5
11AE3
330
16
100
AcDbEntity
 67
     1
  8
実線
100
AcDbLine
 10
335.6470313383164
 20
-18.85414647587928
 30
0.0
 11
338.6739395083164
 21
-15.82723634567927
 31
0.0
  0
LINE
  5
11AE4
330
16
100
AcDbEntity
 67
     1
  8
実線
100
AcDbLine
 10
339.6598286323164
 20
-14.93374516907929
 30
0.0
 11
343.5802417003164
 21
-11.01334451567928
 31
0.0
  0
LINE
  5
11AE5
330
16
100
AcDbEntity
 67
     1
  8
実線
100
AcDbLine
 10
335.7394286323164
 20
-18.85414647587928
 30
0.0
 11
338.6739395083164
 21
-15.9196388668793
 31
0.0
  0
LINE
  5
11AE6
330
16
100
AcDbEntity
 67
     1
  8
実線
100
AcDbLine
 10
339.7522455283164
 20
-14.93374516907929
 30
0.0
 11
343.6726389943165
 21
-11.01334451567928
 31
0.0
  0
LINE
  5
11AE7
330
16
100
AcDbEntity
 67
     1
  8
実線
100
AcDbLine
 10
335.8318455283164
 20
-18.85414647587928
 30
0.0
 11
338.6739395083164
 21
-16.01205118907931
 31
0.0
  0
LINE
  5
11AE8
330
16
100
AcDbEntity
 67
     1
  8
実線
100
AcDbLine
 10
339.8446558903163
 20
-14.93374516907929
 30
0.0
 11
343.7650558903164
 21
-11.01334451567928
 31
0.0
  0
LINE
  5
11AE9
330
16
100
AcDbEntity
 67
     1
  8
実線
100
AcDbLine
 10
335.9242428223164
 20
-18.85414647587928
 30
0.0
 11
338.6739395083164
 21
-16.1044602442793
 31
0.0
  0
LINE
  5
11AEA
330
16
100
AcDbEntity
 67
     1
  8
実線
100
AcDbLine
 10
339.9370531843164
 20
-14.93374516907929
 30
0.0
 11
343.8574531843162
 21
-11.01334451567928
 31
0.0
  0
LINE
  5
11AEB
330
16
100
AcDbEntity
 67
     1
  8
実線
100
AcDbLine
 10
336.0166597183164
 20
-18.85414647587928
 30
0.0
 11
338.6739395083164
 21
-16.19686276547933
 31
0.0
  0
LINE
  5
11AEC
330
16
100
AcDbEntity
 67
     1
  8
実線
100
AcDbLine
 10
340.0294570123163
 20
-14.93374516907929
 30
0.0
 11
343.9011395083164
 21
-11.06206790027929
 31
0.0
  0
LINE
  5
11AED
330
16
100
AcDbEntity
 67
     1
  8
実線
100
AcDbLine
 10
336.1090570123163
 20
-18.85414647587928
 30
0.0
 11
338.6739395083164
 21
-16.28926920707929
 31
0.0
  0
LINE
  5
11AEE
330
16
100
AcDbEntity
 67
     1
  8
実線
100
AcDbLine
 10
340.1218673743164
 20
-14.93374516907929
 30
0.0
 11
343.9011395083164
 21
-11.15447891567928
 31
0.0
  0
LINE
  5
11AEF
330
16
100
AcDbEntity
 67
     1
  8
実線
100
AcDbLine
 10
336.2014739083164
 20
-18.85414647587928
 30
0.0
 11
338.6739395083164
 21
-16.38167760887931
 31
0.0
  0
LINE
  5
11AF0
330
16
100
AcDbEntity
 67
     1
  8
実線
100
AcDbLine
 10
340.2142842703164
 20
-14.93374516907929
 30
0.0
 11
343.9011395083164
 21
-11.24688927767929
 31
0.0
  0
LINE
  5
11AF1
330
16
100
AcDbEntity
 67
     1
  8
実線
100
AcDbLine
 10
336.2938842703163
 20
-18.85414647587928
 30
0.0
 11
338.6739395083164
 21
-16.47409058447929
 31
0.0
  0
LINE
  5
11AF2
330
16
100
AcDbEntity
 67
     1
  8
実線
100
AcDbLine
 10
340.3066815643165
 20
-14.93374516907929
 30
0.0
 11
343.9011395083164
 21
-11.33928787847927
 31
0.0
  0
LINE
  5
11AF3
330
16
100
AcDbEntity
 67
     1
  8
実線
100
AcDbLine
 10
336.3862880983163
 20
-18.85414647587928
 30
0.0
 11
338.6739395083164
 21
-16.56649114547932
 31
0.0
  0
LINE
  5
11AF4
330
16
100
AcDbEntity
 67
     1
  8
実線
100
AcDbLine
 10
340.3990984603163
 20
-14.93374516907929
 30
0.0
 11
343.9011395083164
 21
-11.43169824047927
 31
0.0
  0
LINE
  5
11AF5
330
16
100
AcDbEntity
 67
     1
  8
実線
100
AcDbLine
 10
336.4786984603163
 20
-18.85414647587928
 30
0.0
 11
338.6739395083164
 21
-16.65890150747933
 31
0.0
  0
LINE
  5
11AF6
330
16
100
AcDbEntity
 67
     1
  8
実線
100
AcDbLine
 10
340.4914957543164
 20
-14.93374516907929
 30
0.0
 11
343.9011395083164
 21
-11.52410925587933
 31
0.0
  0
LINE
  5
11AF7
330
16
100
AcDbEntity
 67
     1
  8
実線
100
AcDbLine
 10
336.5710957543164
 20
-18.85414647587928
 30
0.0
 11
338.6739395083164
 21
-16.7513059888793
 31
0.0
  0
LINE
  5
11AF8
330
16
100
AcDbEntity
 67
     1
  8
実線
100
AcDbLine
 10
340.5839126503164
 20
-14.93374516907929
 30
0.0
 11
343.9011395083164
 21
-11.61651961787928
 31
0.0
  0
LINE
  5
11AF9
330
16
100
AcDbEntity
 67
     1
  8
実線
100
AcDbLine
 10
336.6635126503163
 20
-18.85414647587928
 30
0.0
 11
338.6739395083164
 21
-16.84371700427929
 31
0.0
  0
LINE
  5
11AFA
330
16
100
AcDbEntity
 67
     1
  8
実線
100
AcDbLine
 10
340.6763099443162
 20
-14.93374516907929
 30
0.0
 11
343.9011395083164
 21
-11.70891625847932
 31
0.0
  0
LINE
  5
11AFB
330
16
100
AcDbEntity
 67
     1
  8
実線
100
AcDbLine
 10
336.7559099443163
 20
-18.85414647587928
 30
0.0
 11
338.6739395083164
 21
-16.93611952547932
 31
0.0
  0
LINE
  5
11AFC
330
16
100
AcDbEntity
 67
     1
  8
実線
100
AcDbLine
 10
340.7687203063162
 20
-14.93374516907929
 30
0.0
 11
343.9011395083164
 21
-11.80132662047927
 31
0.0
  0
LINE
  5
11AFD
330
16
100
AcDbEntity
 67
     1
  8
実線
100
AcDbLine
 10
336.8483268403163
 20
-18.85414647587928
 30
0.0
 11
338.6739395083164
 21
-17.02852988747933
 31
0.0
  0
LINE
  5
11AFE
330
16
100
AcDbEntity
 67
     1
  8
実線
100
AcDbLine
 10
340.8611241343164
 20
-14.93374516907929
 30
0.0
 11
343.9011395083164
 21
-11.89373371547928
 31
0.0
  0
LINE
  5
11AFF
330
16
100
AcDbEntity
 67
     1
  8
実線
100
AcDbLine
 10
336.9407241343164
 20
-18.85414647587928
 30
0.0
 11
338.6739395083164
 21
-17.1209324086793
 31
0.0
  0
LINE
  5
11B00
330
16
100
AcDbEntity
 67
     1
  8
実線
100
AcDbLine
 10
340.9535344963164
 20
-14.93374516907929
 30
0.0
 11
343.9011395083164
 21
-11.98614407747929
 31
0.0
  0
LINE
  5
11B01
330
16
100
AcDbEntity
 67
     1
  8
実線
100
AcDbLine
 10
337.0331410303163
 20
-18.85414647587928
 30
0.0
 11
338.6739395083164
 21
-17.21334342407929
 31
0.0
  0
LINE
  5
11B02
330
16
100
AcDbEntity
 67
     1
  8
実線
100
AcDbLine
 10
341.0459513923163
 20
-14.93374516907929
 30
0.0
 11
343.9011395083164
 21
-12.07855901327932
 31
0.0
  0
LINE
  5
11B03
330
16
100
AcDbEntity
 67
     1
  8
実線
100
AcDbLine
 10
337.1255513923163
 20
-18.85414647587928
 30
0.0
 11
338.6739395083164
 21
-17.30575574627929
 31
0.0
  0
LINE
  5
11B04
330
16
100
AcDbEntity
 67
     1
  8
実線
100
AcDbLine
 10
341.1383486863165
 20
-14.93374516907929
 30
0.0
 11
343.9011395083164
 21
-12.17095500047927
 31
0.0
  0
LINE
  5
11B05
330
16
100
AcDbEntity
 67
     1
  8
実線
100
AcDbLine
 10
337.2179552203163
 20
-18.85414647587928
 30
0.0
 11
338.6739395083164
 21
-17.39815826747932
 31
0.0
  0
LINE
  5
11B06
330
16
100
AcDbEntity
 67
     1
  8
実線
100
AcDbLine
 10
341.2307459803165
 20
-14.93374516907929
 30
0.0
 11
343.9011395083164
 21
-12.26336209547933
 31
0.0
  0
LINE
  5
11B07
330
16
100
AcDbEntity
 67
     1
  8
実線
100
AcDbLine
 10
337.3103525143164
 20
-18.85414647587928
 30
0.0
 11
338.6739395083164
 21
-17.49056274887928
 31
0.0
  0
LINE
  5
11B08
330
16
100
AcDbEntity
 67
     1
  8
実線
100
AcDbLine
 10
341.3231628763165
 20
-14.93374516907929
 30
0.0
 11
343.9011395083164
 21
-12.35577245747928
 31
0.0
  0
LINE
  5
11B09
330
16
100
AcDbEntity
 67
     1
  8
実線
100
AcDbLine
 10
337.4027694103163
 20
-18.85414647587928
 30
0.0
 11
338.6739395083164
 21
-17.58297376427928
 31
0.0
  0
LINE
  5
11B0A
330
16
100
AcDbEntity
 67
     1
  8
実線
100
AcDbLine
 10
341.4155797723164
 20
-14.93374516907929
 30
0.0
 11
343.9011395083164
 21
-12.44818281947929
 31
0.0
  0
LINE
  5
11B0B
330
16
100
AcDbEntity
 67
     1
  8
実線
100
AcDbLine
 10
337.4951797723163
 20
-18.85414647587928
 30
0.0
 11
338.6739395083164
 21
-17.67538216607929
 31
0.0
  0
LINE
  5
11B0C
330
16
100
AcDbEntity
 67
     1
  8
実線
100
AcDbLine
 10
341.5079770663163
 20
-14.93374516907929
 30
0.0
 11
343.9011395083164
 21
-12.54058142027927
 31
0.0
  0
LINE
  5
11B0D
330
16
100
AcDbEntity
 67
     1
  8
実線
100
AcDbLine
 10
337.5875770663163
 20
-18.85414647587928
 30
0.0
 11
338.6739395083164
 21
-17.76778468727927
 31
0.0
  0
LINE
  5
11B0E
330
16
100
AcDbEntity
 67
     1
  8
実線
100
AcDbLine
 10
341.6003939623164
 20
-14.93374516907929
 30
0.0
 11
343.9011395083164
 21
-12.63299439587931
 31
0.0
  0
LINE
  5
11B0F
330
16
100
AcDbEntity
 67
     1
  8
実線
100
AcDbLine
 10
337.6799939623165
 20
-18.85414647587928
 30
0.0
 11
338.6739395083164
 21
-17.86019766287931
 31
0.0
  0
LINE
  5
11B10
330
16
100
AcDbEntity
 67
     1
  8
実線
100
AcDbLine
 10
341.6927912563165
 20
-14.93374516907929
 30
0.0
 11
343.9011395083164
 21
-12.72540279767927
 31
0.0
  0
LINE
  5
11B11
330
16
100
AcDbEntity
 67
     1
  8
実線
100
AcDbLine
 10
337.7723912563164
 20
-18.85414647587928
 30
0.0
 11
338.6739395083164
 21
-17.95260214427927
 31
0.0
  0
LINE
  5
11B12
330
16
100
AcDbEntity
 67
     1
  8
実線
100
AcDbLine
 10
341.7852016183165
 20
-14.93374516907929
 30
0.0
 11
343.9011395083164
 21
-12.81781381307932
 31
0.0
  0
LINE
  5
11B13
330
16
100
AcDbEntity
 67
     1
  8
実線
100
AcDbLine
 10
337.8648081523163
 20
-18.85414647587928
 30
0.0
 11
338.6739395083164
 21
-18.04501054607929
 31
0.0
  0
LINE
  5
11B14
330
16
100
AcDbEntity
 67
     1
  8
実線
100
AcDbLine
 10
341.8776185143164
 20
-14.93374516907929
 30
0.0
 11
343.9011395083164
 21
-12.91022221487927
 31
0.0
  0
LINE
  5
11B15
330
16
100
AcDbEntity
 67
     1
  8
実線
100
AcDbLine
 10
337.9572054463164
 20
-18.85414647587928
 30
0.0
 11
338.6739395083164
 21
-18.1374209080793
 31
0.0
  0
LINE
  5
11B16
330
16
100
AcDbEntity
 67
     1
  8
実線
100
AcDbLine
 10
341.9700158083165
 20
-14.93374516907929
 30
0.0
 11
343.9011395083164
 21
-13.00262081567931
 31
0.0
  0
LINE
  5
11B17
330
16
100
AcDbEntity
 67
     1
  8
実線
100
AcDbLine
 10
338.0496223423165
 20
-18.85414647587928
 30
0.0
 11
338.6739395083164
 21
-18.2298260428793
 31
0.0
  0
LINE
  5
11B18
330
16
100
AcDbEntity
 67
     1
  8
実線
100
AcDbLine
 10
342.0624131023164
 20
-14.93374516907929
 30
0.0
 11
343.9011395083164
 21
-13.09502921747927
 31
0.0
  0
LINE
  5
11B19
330
16
100
AcDbEntity
 67
     1
  8
実線
100
AcDbLine
 10
338.1420196363164
 20
-18.85414647587928
 30
0.0
 11
338.6739395083164
 21
-18.32222856407927
 31
0.0
  0
LINE
  5
11B1A
330
16
100
AcDbEntity
 67
     1
  8
実線
100
AcDbLine
 10
342.1548299983165
 20
-14.93374516907929
 30
0.0
 11
343.9011395083164
 21
-13.18744023287932
 31
0.0
  0
LINE
  5
11B1B
330
16
100
AcDbEntity
 67
     1
  8
実線
100
AcDbLine
 10
338.2344365323165
 20
-18.85414647587928
 30
0.0
 11
338.6739395083164
 21
-18.41464088627928
 31
0.0
  0
LINE
  5
11B1C
330
16
100
AcDbEntity
 67
     1
  8
実線
100
AcDbLine
 10
342.2472468943164
 20
-14.93374516907929
 30
0.0
 11
343.9011395083164
 21
-13.27985255507932
 31
0.0
  0
LINE
  5
11B1D
330
16
100
AcDbEntity
 67
     1
  8
実線
100
AcDbLine
 10
338.3268468943163
 20
-18.85414647587928
 30
0.0
 11
338.6739395083164
 21
-18.50705190167932
 31
0.0
  0
LINE
  5
11B1E
330
16
100
AcDbEntity
 67
     1
  8
実線
100
AcDbLine
 10
342.3396441883165
 20
-14.93374516907929
 30
0.0
 11
343.9011395083164
 21
-13.37224919567931
 31
0.0
  0
LINE
  5
11B1F
330
16
100
AcDbEntity
 67
     1
  8
実線
100
AcDbLine
 10
338.4192441883164
 20
-18.85414647587928
 30
0.0
 11
338.6739395083164
 21
-18.59945180927926
 31
0.0
  0
LINE
  5
11B20
330
16
100
AcDbEntity
 67
     1
  8
実線
100
AcDbLine
 10
342.4320414823163
 20
-14.93374516907929
 30
0.0
 11
343.9011395083164
 21
-13.46465563727927
 31
0.0
  0
LINE
  5
11B21
330
16
100
AcDbEntity
 67
     1
  8
実線
100
AcDbLine
 10
338.5116480163164
 20
-18.85414647587928
 30
0.0
 11
338.6739395083164
 21
-18.69185694407932
 31
0.0
  0
LINE
  5
11B22
330
16
100
AcDbEntity
 67
     1
  8
実線
100
AcDbLine
 10
342.5244583783165
 20
-14.93374516907929
 30
0.0
 11
343.9011395083164
 21
-13.55706599927928
 31
0.0
  0
LINE
  5
11B23
330
16
100
AcDbEntity
 67
     1
  8
実線
100
AcDbLine
 10
338.6040583783164
 20
-18.85414647587928
 30
0.0
 11
338.6739395083164
 21
-18.78426730607928
 31
0.0
  0
LINE
  5
11B24
330
16
100
AcDbEntity
 67
     1
  8
実線
100
AcDbLine
 10
342.6168687403164
 20
-14.93374516907929
 30
0.0
 11
343.9011395083164
 21
-13.64947897487932
 31
0.0
  0
LINE
  5
11B25
330
16
100
AcDbEntity
 67
     1
  8
実線
100
AcDbLine
 10
338.6739395083164
 20
-18.87667766807929
 30
0.0
 11
338.6964752743164
 21
-18.85414647587928
 31
0.0
  0
LINE
  5
11B26
330
16
100
AcDbEntity
 67
     1
  8
実線
100
AcDbLine
 10
334.7535395083164
 20
-22.79707374767933
 30
0.0
 11
334.7760622063164
 21
-22.77454712927929
 31
0.0
  0
LINE
  5
11B27
330
16
100
AcDbEntity
 67
     1
  8
実線
100
AcDbLine
 10
342.7092725683165
 20
-14.93374516907929
 30
0.0
 11
343.9011395083164
 21
-13.7418795358793
 31
0.0
  0
LINE
  5
11B28
330
16
100
AcDbEntity
 67
     1
  8
実線
100
AcDbLine
 10
338.6739395083164
 20
-18.96908280287929
 30
0.0
 11
338.7888725683164
 21
-18.85414647587928
 31
0.0
  0
LINE
  5
11B29
330
16
100
AcDbEntity
 67
     1
  8
実線
100
AcDbLine
 10
334.7535395083164
 20
-22.88948018927929
 30
0.0
 11
334.8684791023163
 21
-22.77454712927929
 31
0.0
  0
LINE
  5
11B2A
330
16
100
AcDbEntity
 67
     1
  8
実線
100
AcDbLine
 10
342.8016829303164
 20
-14.93374516907929
 30
0.0
 11
343.9011395083164
 21
-13.83428793767931
 31
0.0
  0
LINE
  5
11B2B
330
16
100
AcDbEntity
 67
     1
  8
実線
100
AcDbLine
 10
338.6739395083164
 20
-19.0614931648793
 30
0.0
 11
338.8812894643164
 21
-18.85414647587928
 31
0.0
  0
LINE
  5
11B2C
330
16
100
AcDbEntity
 67
     1
  8
実線
100
AcDbLine
 10
334.7535395083164
 20
-22.98189120467928
 30
0.0
 11
334.9608894643163
 21
-22.77454712927929
 31
0.0
  0
LINE
  5
11B2D
330
16
100
AcDbEntity
 67
     1
  8
実線
100
AcDbLine
 10
342.8940802243165
 20
-14.93374516907929
 30
0.0
 11
343.9011395083164
 21
-13.92669699287931
 31
0.0
  0
LINE
  5
11B2E
330
16
100
AcDbEntity
 67
     1
  8
実線
100
AcDbLine
 10
338.6739395083164
 20
-19.15389568607933
 30
0.0
 11
338.9736867583163
 21
-18.85414647587928
 31
0.0
  0
LINE
  5
11B2F
330
16
100
AcDbEntity
 67
     1
  8
実線
100
AcDbLine
 10
334.7535395083164
 20
-23.0742904588793
 30
0.0
 11
335.0532867583163
 21
-22.77454712927929
 31
0.0
  0
LINE
  5
11B30
330
16
100
AcDbEntity
 67
     1
  8
実線
100
AcDbLine
 10
342.9864971203163
 20
-14.93374516907929
 30
0.0
 11
343.9011395083164
 21
-14.01910539467932
 31
0.0
  0
LINE
  5
11B31
330
16
100
AcDbEntity
 67
     1
  8
実線
100
AcDbLine
 10
338.6739395083164
 20
-19.24630408787929
 30
0.0
 11
339.0661036543164
 21
-18.85414647587928
 31
0.0
  0
LINE
  5
11B32
330
16
100
AcDbEntity
 67
     1
  8
実線
100
AcDbLine
 10
334.7535395083164
 20
-23.16670082087931
 30
0.0
 11
335.1456905863164
 21
-22.77454712927929
 31
0.0
  0
LINE
  5
11B33
330
16
100
AcDbEntity
 67
     1
  8
実線
100
AcDbLine
 10
343.0789140163163
 20
-14.93374516907929
 30
0.0
 11
343.9011395083164
 21
-14.11151575667927
 31
0.0
  0
LINE
  5
11B34
330
16
100
AcDbEntity
 67
     1
  8
実線
100
AcDbLine
 10
338.6739395083164
 20
-19.33871510327928
 30
0.0
 11
339.1585009483163
 21
-18.85414647587928
 31
0.0
  0
LINE
  5
11B35
330
16
100
AcDbEntity
 67
     1
  8
実線
100
AcDbLine
 10
334.7535395083164
 20
-23.2591118362793
 30
0.0
 11
335.2381009483164
 21
-22.77454712927929
 31
0.0
  0
LINE
  5
11B36
330
16
100
AcDbEntity
 67
     1
  8
実線
100
AcDbLine
 10
343.1713113103165
 20
-14.93374516907929
 30
0.0
 11
343.9011395083164
 21
-14.2039182778793
 31
0.0
  0
LINE
  5
11B37
330
16
100
AcDbEntity
 67
     1
  8
実線
100
AcDbLine
 10
338.6739395083164
 20
-19.43112154487929
 30
0.0
 11
339.2509113103164
 21
-18.85414647587928
 31
0.0
  0
LINE
  5
11B38
330
16
100
AcDbEntity
 67
     1
  8
実線
100
AcDbLine
 10
334.7535395083164
 20
-23.35151958467927
 30
0.0
 11
335.3305178443163
 21
-22.77454712927929
 31
0.0
  0
LINE
  5
11B39
330
16
100
AcDbEntity
 67
     1
  8
実線
100
AcDbLine
 10
343.2637086043164
 20
-14.93374516907929
 30
0.0
 11
343.9011395083164
 21
-14.2963253728793
 31
0.0
  0
LINE
  5
11B3A
330
16
100
AcDbEntity
 67
     1
  8
実線
100
AcDbLine
 10
338.6739395083164
 20
-19.52352210587927
 30
0.0
 11
339.3433151383163
 21
-18.85414647587928
 31
0.0
  0
LINE
  5
11B3B
330
16
100
AcDbEntity
 67
     1
  8
実線
100
AcDbLine
 10
334.7535395083164
 20
-23.44391753207927
 30
0.0
 11
335.4229151383164
 21
-22.77454712927929
 31
0.0
  0
LINE
  5
11B3C
330
16
100
AcDbEntity
 67
     1
  8
実線
100
AcDbLine
 10
343.3561255003164
 20
-14.93374516907929
 30
0.0
 11
343.9011395083164
 21
-14.38873377467931
 31
0.0
  0
LINE
  5
11B3D
330
16
100
AcDbEntity
 67
     1
  8
実線
100
AcDbLine
 10
338.6739395083164
 20
-19.61593246787928
 30
0.0
 11
339.4357255003164
 21
-18.85414647587928
 31
0.0
  0
LINE
  5
11B3E
330
16
100
AcDbEntity
 67
     1
  8
実線
100
AcDbLine
 10
334.7535395083164
 20
-23.5363292008793
 30
0.0
 11
335.5153124323164
 21
-22.77454712927929
 31
0.0
  0
LINE
  5
11B3F
330
16
100
AcDbEntity
 67
     1
  8
実線
100
AcDbLine
 10
343.4485358623164
 20
-14.93374516907929
 30
0.0
 11
343.9011395083164
 21
-14.48114413667932
 31
0.0
  0
LINE
  5
11B40
330
16
100
AcDbEntity
 67
     1
  8
実線
100
AcDbLine
 10
338.6739395083164
 20
-19.70834544347932
 30
0.0
 11
339.5281423963163
 21
-18.85414647587928
 31
0.0
  0
LINE
  5
11B41
330
16
100
AcDbEntity
 67
     1
  8
実線
100
AcDbLine
 10
334.7535395083164
 20
-23.62874021627929
 30
0.0
 11
335.6077293283164
 21
-22.77454712927929
 31
0.0
  0
LINE
  5
11B42
330
16
100
AcDbEntity
 67
     1
  8
実線
100
AcDbLine
 10
343.5409396903164
 20
-14.93374516907929
 30
0.0
 11
343.9011395083164
 21
-14.57354273747931
 31
0.0
  0
LINE
  5
11B43
330
16
100
AcDbEntity
 67
     1
  8
実線
100
AcDbLine
 10
338.6739395083164
 20
-19.80074796467929
 30
0.0
 11
339.6205396903163
 21
-18.85414647587928
 31
0.0
  0
LINE
  5
11B44
330
16
100
AcDbEntity
 67
     1
  8
実線
100
AcDbLine
 10
334.7535395083164
 20
-23.72114665787931
 30
0.0
 11
335.7001462243163
 21
-22.77454712927929
 31
0.0
  0
LINE
  5
11B45
330
16
100
AcDbEntity
 67
     1
  8
実線
100
AcDbLine
 10
343.6333500523164
 20
-14.93374516907929
 30
0.0
 11
343.9011395083164
 21
-14.66595571307929
 31
0.0
  0
LINE
  5
11B46
330
16
100
AcDbEntity
 67
     1
  8
実線
100
AcDbLine
 10
338.6739395083164
 20
-19.8931583266793
 30
0.0
 11
339.7129565863163
 21
-18.85414647587928
 31
0.0
  0
LINE
  5
11B47
330
16
100
AcDbEntity
 67
     1
  8
実線
100
AcDbLine
 10
334.7535395083164
 20
-23.81355832667928
 30
0.0
 11
335.7925565863163
 21
-22.77454712927929
 31
0.0
  0
LINE
  5
11B48
330
16
100
AcDbEntity
 67
     1
  8
実線
100
AcDbLine
 10
343.7257473463164
 20
-14.93374516907929
 30
0.0
 11
343.9011395083164
 21
-14.75836215467931
 31
0.0
  0
LINE
  5
11B49
330
16
100
AcDbEntity
 67
     1
  8
実線
100
AcDbLine
 10
338.6739395083164
 20
-19.98556084787928
 30
0.0
 11
339.8053538803162
 21
-18.85414647587928
 31
0.0
  0
LINE
  5
11B4A
330
16
100
AcDbEntity
 67
     1
  8
実線
100
AcDbLine
 10
334.7535395083164
 20
-23.90595692747932
 30
0.0
 11
335.8849538803163
 21
-22.77454712927929
 31
0.0
  0
LINE
  5
11B4B
330
16
100
AcDbEntity
 67
     1
  8
実線
100
AcDbLine
 10
343.8181642423164
 20
-14.93374516907929
 30
0.0
 11
343.9011395083164
 21
-14.85077251667932
 31
0.0
  0
LINE
  5
11B4C
330
16
100
AcDbEntity
 67
     1
  8
実線
100
AcDbLine
 10
338.6739395083164
 20
-20.0779725166793
 30
0.0
 11
339.8977707763163
 21
-18.85414647587928
 31
0.0
  0
LINE
  5
11B4D
330
16
100
AcDbEntity
 67
     1
  8
実線
100
AcDbLine
 10
334.7535395083164
 20
-23.99836859627928
 30
0.0
 11
335.9773577083164
 21
-22.77454712927929
 31
0.0
  0
LINE
  5
11B4E
330
16
100
AcDbEntity
 67
     1
  8
実線
100
AcDbLine
 10
338.6739395083164
 20
-20.17037634467929
 30
0.0
 11
339.9901680703164
 21
-18.85414647587928
 31
0.0
  0
LINE
  5
11B4F
330
16
100
AcDbEntity
 67
     1
  8
実線
100
AcDbLine
 10
334.7535395083164
 20
-24.0907750378793
 30
0.0
 11
336.0697680703164
 21
-22.77454712927929
 31
0.0
  0
LINE
  5
11B50
330
16
100
AcDbEntity
 67
     1
  8
実線
100
AcDbLine
 10
338.6739395083164
 20
-20.26278605327932
 30
0.0
 11
340.0825849663163
 21
-18.85414647587928
 31
0.0
  0
LINE
  5
11B51
330
16
100
AcDbEntity
 67
     1
  8
実線
100
AcDbLine
 10
334.7535395083164
 20
-24.18318539987931
 30
0.0
 11
336.1621849663163
 21
-22.77454712927929
 31
0.0
  0
LINE
  5
11B52
330
16
100
AcDbEntity
 67
     1
  8
実線
100
AcDbLine
 10
338.6739395083164
 20
-20.35518726767928
 30
0.0
 11
340.1749822603164
 21
-18.85414647587928
 31
0.0
  0
LINE
  5
11B53
330
16
100
AcDbEntity
 67
     1
  8
実線
100
AcDbLine
 10
334.7535395083164
 20
-24.2755840006793
 30
0.0
 11
336.2545822603164
 21
-22.77454712927929
 31
0.0
  0
LINE
  5
11B54
330
16
100
AcDbEntity
 67
     1
  8
実線
100
AcDbLine
 10
338.6739395083164
 20
-20.4476008966793
 30
0.0
 11
340.2673926223164
 21
-18.85414647587928
 31
0.0
  0
LINE
  5
11B55
330
16
100
AcDbEntity
 67
     1
  8
実線
100
AcDbLine
 10
334.7535395083164
 20
-24.36799566947933
 30
0.0
 11
336.3469795543163
 21
-22.77454712927929
 31
0.0
  0
LINE
  5
11B56
330
16
100
AcDbEntity
 67
     1
  8
実線
100
AcDbLine
 10
338.6739395083164
 20
-20.54001060527933
 30
0.0
 11
340.3598095183164
 21
-18.85414647587928
 31
0.0
  0
LINE
  5
11B57
330
16
100
AcDbEntity
 67
     1
  8
実線
100
AcDbLine
 10
334.7535395083164
 20
-24.46040668487931
 30
0.0
 11
336.4393964503164
 21
-22.77454712927929
 31
0.0
  0
LINE
  5
11B58
330
16
100
AcDbEntity
 67
     1
  8
実線
100
AcDbLine
 10
338.6739395083164
 20
-20.6324150866793
 30
0.0
 11
340.4522068123164
 21
-18.85414647587928
 31
0.0
  0
LINE
  5
11B59
330
16
100
AcDbEntity
 67
     1
  8
実線
100
AcDbLine
 10
334.7535395083164
 20
-24.55281377987931
 30
0.0
 11
336.5318133463163
 21
-22.77454712927929
 31
0.0
  0
LINE
  5
11B5A
330
16
100
AcDbEntity
 67
     1
  8
実線
100
AcDbLine
 10
338.6739395083164
 20
-20.72481695447929
 30
0.0
 11
340.5446041063165
 21
-18.85414647587928
 31
0.0
  0
LINE
  5
11B5B
330
16
100
AcDbEntity
 67
     1
  8
実線
100
AcDbLine
 10
334.7535395083164
 20
-24.64521238067929
 30
0.0
 11
336.6242106403163
 21
-22.77454712927929
 31
0.0
  0
LINE
  5
11B5C
330
16
100
AcDbEntity
 67
     1
  8
実線
100
AcDbLine
 10
338.6739395083164
 20
-20.8172273164793
 30
0.0
 11
340.6370210023164
 21
-18.85414647587928
 31
0.0
  0
LINE
  5
11B5D
330
16
100
AcDbEntity
 67
     1
  8
実線
100
AcDbLine
 10
334.7535395083164
 20
-24.73762339607928
 30
0.0
 11
336.7166275363163
 21
-22.77454712927929
 31
0.0
  0
LINE
  5
11B5E
330
16
100
AcDbEntity
 67
     1
  8
実線
100
AcDbLine
 10
338.6739395083164
 20
-20.90963833187929
 30
0.0
 11
340.7294378983163
 21
-18.85414647587928
 31
0.0
  0
LINE
  5
11B5F
330
16
100
AcDbEntity
 67
     1
  8
実線
100
AcDbLine
 10
334.7535395083164
 20
-24.83003375807929
 30
0.0
 11
336.8090248303164
 21
-22.77454712927929
 31
0.0
  0
LINE
  5
11B60
330
16
100
AcDbEntity
 67
     1
  8
実線
100
AcDbLine
 10
338.6739395083164
 20
-21.00204281327931
 30
0.0
 11
340.8218351923164
 21
-18.85414647587928
 31
0.0
  0
LINE
  5
11B61
330
16
100
AcDbEntity
 67
     1
  8
実線
100
AcDbLine
 10
334.7535395083164
 20
-24.92244150647933
 30
0.0
 11
336.9014351923165
 21
-22.77454712927929
 31
0.0
  0
LINE
  5
11B62
330
16
100
AcDbEntity
 67
     1
  8
実線
100
AcDbLine
 10
338.6739395083164
 20
-21.09445448207928
 30
0.0
 11
340.9142520883163
 21
-18.85414647587928
 31
0.0
  0
LINE
  5
11B63
330
16
100
AcDbEntity
 67
     1
  8
実線
100
AcDbLine
 10
334.7535395083164
 20
-25.01485317527929
 30
0.0
 11
336.9938520883163
 21
-22.77454712927929
 31
0.0
  0
LINE
  5
11B64
330
16
100
AcDbEntity
 67
     1
  8
実線
100
AcDbLine
 10
338.6739395083164
 20
-21.18685504307931
 30
0.0
 11
341.0066493823164
 21
-18.85414647587928
 31
0.0
  0
LINE
  5
11B65
330
16
100
AcDbEntity
 67
     1
  8
実線
100
AcDbLine
 10
334.7535395083164
 20
-25.10725177607927
 30
0.0
 11
337.0862493823163
 21
-22.77454712927929
 31
0.0
  0
LINE
  5
11B66
330
16
100
AcDbEntity
 67
     1
  8
実線
100
AcDbLine
 10
338.6739395083164
 20
-21.27926671187928
 30
0.0
 11
341.0990597443164
 21
-18.85414647587928
 31
0.0
  0
LINE
  5
11B67
330
16
100
AcDbEntity
 67
     1
  8
実線
100
AcDbLine
 10
334.7535395083164
 20
-25.19966213807928
 30
0.0
 11
337.1786466763165
 21
-22.77454712927929
 31
0.0
  0
LINE
  5
11B68
330
16
100
AcDbEntity
 67
     1
  8
実線
100
AcDbLine
 10
338.6739395083164
 20
-21.37167707387929
 30
0.0
 11
341.1914635723164
 21
-18.85414647587928
 31
0.0
  0
LINE
  5
11B69
330
16
100
AcDbEntity
 67
     1
  8
実線
100
AcDbLine
 10
334.7535395083164
 20
-25.29207315347933
 30
0.0
 11
337.2710635723163
 21
-22.77454712927929
 31
0.0
  0
LINE
  5
11B6A
330
16
100
AcDbEntity
 67
     1
  8
実線
100
AcDbLine
 10
338.6739395083164
 20
-21.46408155527931
 30
0.0
 11
341.2838739343162
 21
-18.85414647587928
 31
0.0
  0
LINE
  5
11B6B
330
16
100
AcDbEntity
 67
     1
  8
実線
100
AcDbLine
 10
334.7535395083164
 20
-25.38448024847927
 30
0.0
 11
337.3634804683164
 21
-22.77454712927929
 31
0.0
  0
LINE
  5
11B6C
330
16
100
AcDbEntity
 67
     1
  8
実線
100
AcDbLine
 10
338.6739395083164
 20
-21.55648342307931
 30
0.0
 11
341.3762712283165
 21
-18.85414647587928
 31
0.0
  0
LINE
  5
11B6D
330
16
100
AcDbEntity
 67
     1
  8
実線
100
AcDbLine
 10
334.7535395083164
 20
-25.47687819587928
 30
0.0
 11
337.4558777623164
 21
-22.77454712927929
 31
0.0
  0
LINE
  5
11B6E
330
16
100
AcDbEntity
 67
     1
  8
実線
100
AcDbLine
 10
338.6739395083164
 20
-21.64889509187927
 30
0.0
 11
341.4686881243164
 21
-18.85414647587928
 31
0.0
  0
LINE
  5
11B6F
330
16
100
AcDbEntity
 67
     1
  8
実線
100
AcDbLine
 10
334.7535395083164
 20
-25.56929051807928
 30
0.0
 11
337.5482946583164
 21
-22.77454712927929
 31
0.0
  0
LINE
  5
11B70
330
16
100
AcDbEntity
 67
     1
  8
実線
100
AcDbLine
 10
338.6739395083164
 20
-21.74130545387928
 30
0.0
 11
341.5611050203163
 21
-18.85414647587928
 31
0.0
  0
LINE
  5
11B71
330
16
100
AcDbEntity
 67
     1
  8
実線
100
AcDbLine
 10
334.7535395083164
 20
-25.66170153347933
 30
0.0
 11
337.6406919523164
 21
-22.77454712927929
 31
0.0
  0
LINE
  5
11B72
330
16
100
AcDbEntity
 67
     1
  8
実線
100
AcDbLine
 10
338.6739395083164
 20
-21.83370928187927
 30
0.0
 11
341.6535023143164
 21
-18.85414647587928
 31
0.0
  0
LINE
  5
11B73
330
16
100
AcDbEntity
 67
     1
  8
実線
100
AcDbLine
 10
334.7535395083164
 20
-25.75410862847932
 30
0.0
 11
337.7331023143164
 21
-22.77454712927929
 31
0.0
  0
LINE
  5
11B74
330
16
100
AcDbEntity
 67
     1
  8
実線
100
AcDbLine
 10
338.6739395083164
 20
-21.92611964387928
 30
0.0
 11
341.7459192103163
 21
-18.85414647587928
 31
0.0
  0
LINE
  5
11B75
330
16
100
AcDbEntity
 67
     1
  8
実線
100
AcDbLine
 10
334.7535395083164
 20
-25.8465183370793
 30
0.0
 11
337.8255061423164
 21
-22.77454712927929
 31
0.0
  0
LINE
  5
11B76
330
16
100
AcDbEntity
 67
     1
  8
実線
100
AcDbLine
 10
338.6739395083164
 20
-22.01852216507931
 30
0.0
 11
341.8383165043165
 21
-18.85414647587928
 31
0.0
  0
LINE
  5
11B77
330
16
100
AcDbEntity
 67
     1
  8
実線
100
AcDbLine
 10
334.7535395083164
 20
-25.9389182446793
 30
0.0
 11
337.9179165043164
 21
-22.77454712927929
 31
0.0
  0
LINE
  5
11B78
330
16
100
AcDbEntity
 67
     1
  8
実線
100
AcDbLine
 10
338.6739395083164
 20
-22.11093318047931
 30
0.0
 11
341.9307268663164
 21
-18.85414647587928
 31
0.0
  0
LINE
  5
11B79
330
16
100
AcDbEntity
 67
     1
  8
実線
100
AcDbLine
 10
334.7535395083164
 20
-26.03132729987929
 30
0.0
 11
338.0103137983165
 21
-22.77454712927929
 31
0.0
  0
LINE
  5
11B7A
330
16
100
AcDbEntity
 67
     1
  8
実線
100
AcDbLine
 10
338.6739395083164
 20
-22.20333766187932
 30
0.0
 11
342.0231306943163
 21
-18.85414647587928
 31
0.0
  0
LINE
  5
11B7B
330
16
100
AcDbEntity
 67
     1
  8
実線
100
AcDbLine
 10
334.7535395083164
 20
-26.12373635507928
 30
0.0
 11
338.1027306943164
 21
-22.77454712927929
 31
0.0
  0
LINE
  5
11B7C
330
16
100
AcDbEntity
 67
     1
  8
実線
100
AcDbLine
 10
338.6739395083164
 20
-22.29574802387928
 30
0.0
 11
342.1155410563164
 21
-18.85414647587928
 31
0.0
  0
LINE
  5
11B7D
330
16
100
AcDbEntity
 67
     1
  8
実線
100
AcDbLine
 10
334.7535395083164
 20
-26.21614671707929
 30
0.0
 11
338.1951475903163
 21
-22.77454712927929
 31
0.0
  0
LINE
  5
11B7E
330
16
100
AcDbEntity
 67
     1
  8
実線
100
AcDbLine
 10
338.6739395083164
 20
-22.38814989167932
 30
0.0
 11
342.2079383503163
 21
-18.85414647587928
 31
0.0
  0
LINE
  5
11B7F
330
16
100
AcDbEntity
 67
     1
  8
実線
100
AcDbLine
 10
334.7535395083164
 20
-26.30854531787933
 30
0.0
 11
338.2875448843164
 21
-22.77454712927929
 31
0.0
  0
LINE
  5
11B80
330
16
100
AcDbEntity
 67
     1
  8
実線
100
AcDbLine
 10
338.6739395083164
 20
-22.4805596002793
 30
0.0
 11
342.3003552463165
 21
-18.85414647587928
 31
0.0
  0
LINE
  5
11B81
330
16
100
AcDbEntity
 67
     1
  8
実線
100
AcDbLine
 10
334.7535395083164
 20
-26.40095633327932
 30
0.0
 11
338.3799421783165
 21
-22.77454712927929
 31
0.0
  0
LINE
  5
11B82
330
16
100
AcDbEntity
 67
     1
  8
実線
100
AcDbLine
 10
338.6739395083164
 20
-22.5729719224793
 30
0.0
 11
342.3927721423163
 21
-18.85414647587928
 31
0.0
  0
LINE
  5
11B83
330
16
100
AcDbEntity
 67
     1
  8
実線
100
AcDbLine
 10
334.7535395083164
 20
-26.49336669527933
 30
0.0
 11
338.4723590743164
 21
-22.77454712927929
 31
0.0
  0
LINE
  5
11B84
330
16
100
AcDbEntity
 67
     1
  8
実線
100
AcDbLine
 10
338.6739395083164
 20
-22.66537640387933
 30
0.0
 11
342.4851694363164
 21
-18.85414647587928
 31
0.0
  0
LINE
  5
11B85
330
16
100
AcDbEntity
 67
     1
  8
実線
100
AcDbLine
 10
334.7535395083164
 20
-26.58577509707928
 30
0.0
 11
338.5647694363163
 21
-22.77454712927929
 31
0.0
  0
LINE
  5
11B86
330
16
100
AcDbEntity
 67
     1
  8
実線
100
AcDbLine
 10
338.6739395083164
 20
-22.75777696487931
 30
0.0
 11
342.5775667303164
 21
-18.85414647587928
 31
0.0
  0
LINE
  5
11B87
330
16
100
AcDbEntity
 67
     1
  8
実線
100
AcDbLine
 10
334.7535395083164
 20
-26.67817304447929
 30
0.0
 11
338.6571732643164
 21
-22.77454712927929
 31
0.0
  0
LINE
  5
11B88
330
16
100
AcDbEntity
 67
     1
  8
実線
100
AcDbLine
 10
338.7495836263164
 20
-22.77454712927929
 30
0.0
 11
342.5943329743163
 21
-18.92979320747933
 31
0.0
  0
LINE
  5
11B89
330
16
100
AcDbEntity
 67
     1
  8
実線
100
AcDbLine
 10
334.8291705583164
 20
-26.69494647587928
 30
0.0
 11
338.6739395083164
 21
-22.85018863367927
 31
0.0
  0
LINE
  5
11B8A
330
16
100
AcDbEntity
 67
     1
  8
実線
100
AcDbLine
 10
338.8419874543164
 20
-22.77454712927929
 30
0.0
 11
342.5943329743163
 21
-19.02220356947928
 31
0.0
  0
LINE
  5
11B8B
330
16
100
AcDbEntity
 67
     1
  8
実線
100
AcDbLine
 10
334.9215874543164
 20
-26.69494647587928
 30
0.0
 11
338.6739395083164
 21
-22.94259834227931
 31
0.0
  0
LINE
  5
11B8C
330
16
100
AcDbEntity
 67
     1
  8
実線
100
AcDbLine
 10
338.9343978163164
 20
-22.77454712927929
 30
0.0
 11
342.5943329743163
 21
-19.11460609067931
 31
0.0
  0
LINE
  5
11B8D
330
16
100
AcDbEntity
 67
     1
  8
実線
100
AcDbLine
 10
335.0140043503163
 20
-26.69494647587928
 30
0.0
 11
338.6739395083164
 21
-23.03500478387932
 31
0.0
  0
LINE
  5
11B8E
330
16
100
AcDbEntity
 67
     1
  8
実線
100
AcDbLine
 10
339.0267951103163
 20
-22.77454712927929
 30
0.0
 11
342.5943329743163
 21
-19.20701645267932
 31
0.0
  0
LINE
  5
11B8F
330
16
100
AcDbEntity
 67
     1
  8
実線
100
AcDbLine
 10
335.1064016443164
 20
-26.69494647587928
 30
0.0
 11
338.6739395083164
 21
-23.12741579927931
 31
0.0
  0
LINE
  5
11B90
330
16
100
AcDbEntity
 67
     1
  8
実線
100
AcDbLine
 10
339.1192120063163
 20
-22.77454712927929
 30
0.0
 11
342.5943329743163
 21
-19.29941962727927
 31
0.0
  0
LINE
  5
11B91
330
16
100
AcDbEntity
 67
     1
  8
実線
100
AcDbLine
 10
335.1987989383165
 20
-26.69494647587928
 30
0.0
 11
338.6739395083164
 21
-23.21981636027929
 31
0.0
  0
LINE
  5
11B92
330
16
100
AcDbEntity
 67
     1
  8
実線
100
AcDbLine
 10
339.2116093003163
 20
-22.77454712927929
 30
0.0
 11
342.5943329743163
 21
-19.39183194947933
 31
0.0
  0
LINE
  5
11B93
330
16
100
AcDbEntity
 67
     1
  8
実線
100
AcDbLine
 10
335.2912158343163
 20
-26.69494647587928
 30
0.0
 11
338.6739395083164
 21
-23.31222737567928
 31
0.0
  0
LINE
  5
11B94
330
16
100
AcDbEntity
 67
     1
  8
実線
100
AcDbLine
 10
339.3040261963164
 20
-22.77454712927929
 30
0.0
 11
342.5943329743163
 21
-19.48424231147928
 31
0.0
  0
LINE
  5
11B95
330
16
100
AcDbEntity
 67
     1
  8
実線
100
AcDbLine
 10
335.3836261963163
 20
-26.69494647587928
 30
0.0
 11
338.6739395083164
 21
-23.40463839107933
 31
0.0
  0
LINE
  5
11B96
330
16
100
AcDbEntity
 67
     1
  8
実線
100
AcDbLine
 10
339.3964430923163
 20
-22.77454712927929
 30
0.0
 11
342.5943329743163
 21
-19.57664287247932
 31
0.0
  0
LINE
  5
11B97
330
16
100
AcDbEntity
 67
     1
  8
実線
100
AcDbLine
 10
335.4760300243163
 20
-26.69494647587928
 30
0.0
 11
338.6739395083164
 21
-23.49704287247929
 31
0.0
  0
LINE
  5
11B98
330
16
100
AcDbEntity
 67
     1
  8
実線
100
AcDbLine
 10
339.4888403863164
 20
-22.77454712927929
 30
0.0
 11
342.5943329743163
 21
-19.66904996747931
 31
0.0
  0
LINE
  5
11B99
330
16
100
AcDbEntity
 67
     1
  8
実線
100
AcDbLine
 10
335.5684273183165
 20
-26.69494647587928
 30
0.0
 11
338.6739395083164
 21
-23.58944474027929
 31
0.0
  0
LINE
  5
11B9A
330
16
100
AcDbEntity
 67
     1
  8
実線
100
AcDbLine
 10
339.5812376803164
 20
-22.77454712927929
 30
0.0
 11
342.5943329743163
 21
-19.76146032947933
 31
0.0
  0
LINE
  5
11B9B
330
16
100
AcDbEntity
 67
     1
  8
実線
100
AcDbLine
 10
335.6608376803162
 20
-26.69494647587928
 30
0.0
 11
338.6739395083164
 21
-23.68185510227929
 31
0.0
  0
LINE
  5
11B9C
330
16
100
AcDbEntity
 67
     1
  8
実線
100
AcDbLine
 10
339.6736545763164
 20
-22.77454712927929
 30
0.0
 11
342.5943329743163
 21
-19.85387069147928
 31
0.0
  0
LINE
  5
11B9D
330
16
100
AcDbEntity
 67
     1
  8
実線
100
AcDbLine
 10
335.7532545763163
 20
-26.69494647587928
 30
0.0
 11
338.6739395083164
 21
-23.7742654642793
 31
0.0
  0
LINE
  5
11B9E
330
16
100
AcDbEntity
 67
     1
  8
実線
100
AcDbLine
 10
339.7660649383164
 20
-22.77454712927929
 30
0.0
 11
342.5943329743163
 21
-19.9462712524793
 31
0.0
  0
LINE
  5
11B9F
330
16
100
AcDbEntity
 67
     1
  8
実線
100
AcDbLine
 10
335.8456714723163
 20
-26.69494647587928
 30
0.0
 11
338.6739395083164
 21
-23.86667125247929
 31
0.0
  0
LINE
  5
11BA0
330
16
100
AcDbEntity
 67
     1
  8
実線
100
AcDbLine
 10
339.8584622323164
 20
-22.77454712927929
 30
0.0
 11
342.5943329743163
 21
-20.03867638727932
 31
0.0
  0
LINE
  5
11BA1
330
16
100
AcDbEntity
 67
     1
  8
実線
100
AcDbLine
 10
335.9380687663164
 20
-26.69494647587928
 30
0.0
 11
338.6739395083164
 21
-23.95907181347932
 31
0.0
  0
LINE
  5
11BA2
330
16
100
AcDbEntity
 67
     1
  8
実線
100
AcDbLine
 10
339.9508791283164
 20
-22.77454712927929
 30
0.0
 11
342.5943329743163
 21
-20.13108478907933
 31
0.0
  0
LINE
  5
11BA3
330
16
100
AcDbEntity
 67
     1
  8
実線
100
AcDbLine
 10
336.0304660603164
 20
-26.69494647587928
 30
0.0
 11
338.6739395083164
 21
-24.05148152207929
 31
0.0
  0
LINE
  5
11BA4
330
16
100
AcDbEntity
 67
     1
  8
実線
100
AcDbLine
 10
340.0432764223164
 20
-22.77454712927929
 30
0.0
 11
342.5943329743163
 21
-20.2234984180793
 31
0.0
  0
LINE
  5
11BA5
330
16
100
AcDbEntity
 67
     1
  8
実線
100
AcDbLine
 10
336.1228829563163
 20
-26.69494647587928
 30
0.0
 11
338.6739395083164
 21
-24.1438938442793
 31
0.0
  0
LINE
  5
11BA6
330
16
100
AcDbEntity
 67
     1
  8
実線
100
AcDbLine
 10
340.1356933183164
 20
-22.77454712927929
 30
0.0
 11
342.5943329743163
 21
-20.31589963247931
 31
0.0
  0
LINE
  5
11BA7
330
16
100
AcDbEntity
 67
     1
  8
実線
100
AcDbLine
 10
336.2152933183164
 20
-26.69494647587928
 30
0.0
 11
338.6739395083164
 21
-24.23629963247928
 31
0.0
  0
LINE
  5
11BA8
330
16
100
AcDbEntity
 67
     1
  8
実線
100
AcDbLine
 10
340.2281102143163
 20
-22.77454712927929
 30
0.0
 11
342.5943329743163
 21
-20.40831130127928
 31
0.0
  0
LINE
  5
11BA9
330
16
100
AcDbEntity
 67
     1
  8
実線
100
AcDbLine
 10
336.3076971463164
 20
-26.69494647587928
 30
0.0
 11
338.6739395083164
 21
-24.32870999447929
 31
0.0
  0
LINE
  5
11BAA
330
16
100
AcDbEntity
 67
     1
  8
実線
100
AcDbLine
 10
340.3205075083164
 20
-22.77454712927929
 30
0.0
 11
342.5943329743163
 21
-20.50071382247931
 31
0.0
  0
LINE
  5
11BAB
330
16
100
AcDbEntity
 67
     1
  8
実線
100
AcDbLine
 10
336.4000944403163
 20
-26.69494647587928
 30
0.0
 11
338.6739395083164
 21
-24.42110990207929
 31
0.0
  0
LINE
  5
11BAC
330
16
100
AcDbEntity
 67
     1
  8
実線
100
AcDbLine
 10
340.4129048023165
 20
-22.77454712927929
 30
0.0
 11
342.5943329743163
 21
-20.59312483787929
 31
0.0
  0
LINE
  5
11BAD
330
16
100
AcDbEntity
 67
     1
  8
実線
100
AcDbLine
 10
336.4925048023163
 20
-26.69494647587928
 30
0.0
 11
338.6739395083164
 21
-24.5135202640793
 31
0.0
  0
LINE
  5
11BAE
330
16
100
AcDbEntity
 67
     1
  8
実線
100
AcDbLine
 10
340.5053216983164
 20
-22.77454712927929
 30
0.0
 11
342.5943329743163
 21
-20.68553650667932
 31
0.0
  0
LINE
  5
11BAF
330
16
100
AcDbEntity
 67
     1
  8
実線
100
AcDbLine
 10
336.5849216983164
 20
-26.69494647587928
 30
0.0
 11
338.6739395083164
 21
-24.60593127947929
 31
0.0
  0
LINE
  5
11BB0
330
16
100
AcDbEntity
 67
     1
  8
実線
100
AcDbLine
 10
340.5977320603164
 20
-22.77454712927929
 30
0.0
 11
342.5943329743163
 21
-20.77793902787929
 31
0.0
  0
LINE
  5
11BB1
330
16
100
AcDbEntity
 67
     1
  8
実線
100
AcDbLine
 10
336.6773385943163
 20
-26.69494647587928
 30
0.0
 11
338.6739395083164
 21
-24.69833772107931
 31
0.0
  0
LINE
  5
11BB2
330
16
100
AcDbEntity
 67
     1
  8
実線
100
AcDbLine
 10
340.6901293543165
 20
-22.77454712927929
 30
0.0
 11
342.5943329743163
 21
-20.8703422024793
 31
0.0
  0
LINE
  5
11BB3
330
16
100
AcDbEntity
 67
     1
  8
実線
100
AcDbLine
 10
336.7697358883163
 20
-26.69494647587928
 30
0.0
 11
338.6739395083164
 21
-24.79073828207928
 31
0.0
  0
LINE
  5
11BB4
330
16
100
AcDbEntity
 67
     1
  8
実線
100
AcDbLine
 10
340.7825462503164
 20
-22.77454712927929
 30
0.0
 11
342.5943329743163
 21
-20.96275321787929
 31
0.0
  0
LINE
  5
11BB5
330
16
100
AcDbEntity
 67
     1
  8
実線
100
AcDbLine
 10
336.8621331823164
 20
-26.69494647587928
 30
0.0
 11
338.6739395083164
 21
-24.88314864407929
 31
0.0
  0
LINE
  5
11BB6
330
16
100
AcDbEntity
 67
     1
  8
実線
100
AcDbLine
 10
340.8749435443163
 20
-22.77454712927929
 30
0.0
 11
342.5943329743163
 21
-21.05516292647932
 31
0.0
  0
LINE
  5
11BB7
330
16
100
AcDbEntity
 67
     1
  8
実線
100
AcDbLine
 10
336.9545500783164
 20
-26.69494647587928
 30
0.0
 11
338.6739395083164
 21
-24.97555965947928
 31
0.0
  0
LINE
  5
11BB8
330
16
100
AcDbEntity
 67
     1
  8
実線
100
AcDbLine
 10
340.9673604403163
 20
-22.77454712927929
 30
0.0
 11
342.5943329743163
 21
-21.14756610107933
 31
0.0
  0
LINE
  5
11BB9
330
16
100
AcDbEntity
 67
     1
  8
実線
100
AcDbLine
 10
337.0469604403163
 20
-26.69494647587928
 30
0.0
 11
338.6739395083164
 21
-25.06796479427928
 31
0.0
  0
LINE
  5
11BBA
330
16
100
AcDbEntity
 67
     1
  8
実線
100
AcDbLine
 10
341.0597577343164
 20
-22.77454712927929
 30
0.0
 11
342.5943329743163
 21
-21.23997907667931
 31
0.0
  0
LINE
  5
11BBB
330
16
100
AcDbEntity
 67
     1
  8
実線
100
AcDbLine
 10
337.1393642683165
 20
-26.69494647587928
 30
0.0
 11
338.6739395083164
 21
-25.16037646307931
 31
0.0
  0
LINE
  5
11BBC
330
16
100
AcDbEntity
 67
     1
  8
実線
100
AcDbLine
 10
341.1521746303163
 20
-22.77454712927929
 30
0.0
 11
342.5943329743163
 21
-21.33238225127932
 31
0.0
  0
LINE
  5
11BBD
330
16
100
AcDbEntity
 67
     1
  8
実線
100
AcDbLine
 10
337.2317615623164
 20
-26.69494647587928
 30
0.0
 11
338.6739395083164
 21
-25.25277702407929
 31
0.0
  0
LINE
  5
11BBE
330
16
100
AcDbEntity
 67
     1
  8
実線
100
AcDbLine
 10
341.2445719243164
 20
-22.77454712927929
 30
0.0
 11
342.5943329743163
 21
-21.42479195987929
 31
0.0
  0
LINE
  5
11BBF
330
16
100
AcDbEntity
 67
     1
  8
実線
100
AcDbLine
 10
337.3241719243164
 20
-26.69494647587928
 30
0.0
 11
338.6739395083164
 21
-25.34518803947928
 31
0.0
  0
LINE
  5
11BC0
330
16
100
AcDbEntity
 67
     1
  8
実線
100
AcDbLine
 10
341.3369888203164
 20
-22.77454712927929
 30
0.0
 11
342.5943329743163
 21
-21.51719382767929
 31
0.0
  0
LINE
  5
11BC1
330
16
100
AcDbEntity
 67
     1
  8
実線
100
AcDbLine
 10
337.4165888203163
 20
-26.69494647587928
 30
0.0
 11
338.6739395083164
 21
-25.43759317427928
 31
0.0
  0
LINE
  5
11BC2
330
16
100
AcDbEntity
 67
     1
  8
実線
100
AcDbLine
 10
341.4293861143165
 20
-22.77454712927929
 30
0.0
 11
342.5943329743163
 21
-21.60960418967929
 31
0.0
  0
LINE
  5
11BC3
330
16
100
AcDbEntity
 67
     1
  8
実線
100
AcDbLine
 10
337.5089861143164
 20
-26.69494647587928
 30
0.0
 11
338.6739395083164
 21
-25.53000418967933
 31
0.0
  0
LINE
  5
11BC4
330
16
100
AcDbEntity
 67
     1
  8
実線
100
AcDbLine
 10
341.5217964763162
 20
-22.77454712927929
 30
0.0
 11
342.5943329743163
 21
-21.70200801767928
 31
0.0
  0
LINE
  5
11BC5
330
16
100
AcDbEntity
 67
     1
  8
実線
100
AcDbLine
 10
337.6013899423165
 20
-26.69494647587928
 30
0.0
 11
338.6739395083164
 21
-25.62240344387929
 31
0.0
  0
LINE
  5
11BC6
330
16
100
AcDbEntity
 67
     1
  8
実線
100
AcDbLine
 10
341.6142133723164
 20
-22.77454712927929
 30
0.0
 11
342.5943329743163
 21
-21.79442033987929
 31
0.0
  0
LINE
  5
11BC7
330
16
100
AcDbEntity
 67
     1
  8
実線
100
AcDbLine
 10
337.6938003043165
 20
-26.69494647587928
 30
0.0
 11
338.6739395083164
 21
-25.71481641947927
 31
0.0
  0
LINE
  5
11BC8
330
16
100
AcDbEntity
 67
     1
  8
実線
100
AcDbLine
 10
341.7066106663162
 20
-22.77454712927929
 30
0.0
 11
342.5943329743163
 21
-21.88683135527929
 31
0.0
  0
LINE
  5
11BC9
330
16
100
AcDbEntity
 67
     1
  8
実線
100
AcDbLine
 10
337.7862172003163
 20
-26.69494647587928
 30
0.0
 11
338.6739395083164
 21
-25.80722678147929
 31
0.0
  0
LINE
  5
11BCA
330
16
100
AcDbEntity
 67
     1
  8
実線
100
AcDbLine
 10
341.7990275623164
 20
-22.77454712927929
 30
0.0
 11
342.5943329743163
 21
-21.9792338764793
 31
0.0
  0
LINE
  5
11BCB
330
16
100
AcDbEntity
 67
     1
  8
実線
100
AcDbLine
 10
337.8786275623163
 20
-26.69494647587928
 30
0.0
 11
338.6739395083164
 21
-25.89963256967932
 31
0.0
  0
LINE
  5
11BCC
330
16
100
AcDbEntity
 67
     1
  8
実線
100
AcDbLine
 10
341.8914248563165
 20
-22.77454712927929
 30
0.0
 11
342.5943329743163
 21
-22.07163639767928
 31
0.0
  0
LINE
  5
11BCD
330
16
100
AcDbEntity
 67
     1
  8
実線
100
AcDbLine
 10
337.9710313903164
 20
-26.69494647587928
 30
0.0
 11
338.6739395083164
 21
-25.99203182387928
 31
0.0
  0
LINE
  5
11BCE
330
16
100
AcDbEntity
 67
     1
  8
実線
100
AcDbLine
 10
341.9838417523164
 20
-22.77454712927929
 30
0.0
 11
342.5943329743163
 21
-22.16404675967929
 31
0.0
  0
LINE
  5
11BCF
330
16
100
AcDbEntity
 67
     1
  8
実線
100
AcDbLine
 10
338.0634286843163
 20
-26.69494647587928
 30
0.0
 11
338.6739395083164
 21
-26.08444283927933
 31
0.0
  0
LINE
  5
11BD0
330
16
100
AcDbEntity
 67
     1
  8
実線
100
AcDbLine
 10
342.0762390463165
 20
-22.77454712927929
 30
0.0
 11
342.5943329743163
 21
-22.25645777507933
 31
0.0
  0
LINE
  5
11BD1
330
16
100
AcDbEntity
 67
     1
  8
実線
100
AcDbLine
 10
338.1558455803164
 20
-26.69494647587928
 30
0.0
 11
338.6739395083164
 21
-26.17685320127928
 31
0.0
  0
LINE
  5
11BD2
330
16
100
AcDbEntity
 67
     1
  8
実線
100
AcDbLine
 10
342.1686559423164
 20
-22.77454712927929
 30
0.0
 11
342.5943329743163
 21
-22.34886290987928
 31
0.0
  0
LINE
  5
11BD3
330
16
100
AcDbEntity
 67
     1
  8
実線
100
AcDbLine
 10
338.2482559423163
 20
-26.69494647587928
 30
0.0
 11
338.6739395083164
 21
-26.26926094967931
 31
0.0
  0
LINE
  5
11BD4
330
16
100
AcDbEntity
 67
     1
  8
実線
100
AcDbLine
 10
342.2610532363163
 20
-22.77454712927929
 30
0.0
 11
342.5943329743163
 21
-22.44127261847931
 31
0.0
  0
LINE
  5
11BD5
330
16
100
AcDbEntity
 67
     1
  8
実線
100
AcDbLine
 10
338.3406532363164
 20
-26.69494647587928
 30
0.0
 11
338.6739395083164
 21
-26.36167131167932
 31
0.0
  0
LINE
  5
11BD6
330
16
100
AcDbEntity
 67
     1
  8
実線
100
AcDbLine
 10
342.3534701323163
 20
-22.77454712927929
 30
0.0
 11
342.5943329743163
 21
-22.53367513967928
 31
0.0
  0
LINE
  5
11BD7
330
16
100
AcDbEntity
 67
     1
  8
実線
100
AcDbLine
 10
338.4330570643164
 20
-26.69494647587928
 30
0.0
 11
338.6739395083164
 21
-26.45407121927933
 31
0.0
  0
LINE
  5
11BD8
330
16
100
AcDbEntity
 67
     1
  8
実線
100
AcDbLine
 10
342.4458674263164
 20
-22.77454712927929
 30
0.0
 11
342.5943329743163
 21
-22.62608615507927
 31
0.0
  0
LINE
  5
11BD9
330
16
100
AcDbEntity
 67
     1
  8
実線
100
AcDbLine
 10
338.5254674263162
 20
-26.69494647587928
 30
0.0
 11
338.6739395083164
 21
-26.54648158127927
 31
0.0
  0
LINE
  5
11BDA
330
16
100
AcDbEntity
 67
     1
  8
実線
100
AcDbLine
 10
342.5382777883165
 20
-22.77454712927929
 30
0.0
 11
342.5943329743163
 21
-22.71849651707928
 31
0.0
  0
LINE
  5
11BDB
330
16
100
AcDbEntity
 67
     1
  8
実線
100
AcDbLine
 10
338.6178843223163
 20
-26.69494647587928
 30
0.0
 11
338.6739395083164
 21
-26.63889259667932
 31
0.0
  0
LINE
  5
11BDC
330
16
100
AcDbEntity
 67
     1
  8
実線
100
AcDbLine
 10
354.7736760232192
 20
-19.17316237046928
 30
0.0
 11
354.8683365232192
 21
-19.07850929546928
 31
0.0
  0
LINE
  5
11BDD
330
16
100
AcDbEntity
 67
     1
  8
実線
100
AcDbLine
 10
354.7736760232192
 20
-19.28984377046928
 30
0.0
 11
354.9850245232192
 21
-19.07850929546928
 31
0.0
  0
LINE
  5
11BDE
330
16
100
AcDbEntity
 67
     1
  8
実線
100
AcDbLine
 10
354.7736760232192
 20
-19.40651527046927
 30
0.0
 11
355.1016877732193
 21
-19.07850929546928
 31
0.0
  0
LINE
  5
11BDF
330
16
100
AcDbEntity
 67
     1
  8
実線
100
AcDbLine
 10
354.7736760232192
 20
-19.52319502046928
 30
0.0
 11
355.2183757732191
 21
-19.07850929546928
 31
0.0
  0
LINE
  5
11BE0
330
16
100
AcDbEntity
 67
     1
  8
実線
100
AcDbLine
 10
354.7736760232192
 20
-19.63987559546925
 30
0.0
 11
355.3350390232192
 21
-19.07850929546928
 31
0.0
  0
LINE
  5
11BE1
330
16
100
AcDbEntity
 67
     1
  8
実線
100
AcDbLine
 10
354.7736760232192
 20
-19.75654544546925
 30
0.0
 11
355.4517187732192
 21
-19.07850929546928
 31
0.0
  0
LINE
  5
11BE2
330
16
100
AcDbEntity
 67
     1
  8
実線
100
AcDbLine
 10
354.7736760232192
 20
-19.87322519546925
 30
0.0
 11
355.5683902732192
 21
-19.07850929546928
 31
0.0
  0
LINE
  5
11BE3
330
16
100
AcDbEntity
 67
     1
  8
実線
100
AcDbLine
 10
354.8600700232191
 20
-19.90350929546927
 30
0.0
 11
355.5986842732191
 21
-19.16489339546926
 31
0.0
  0
LINE
  5
11BE4
330
16
100
AcDbEntity
 67
     1
  8
実線
100
AcDbLine
 10
354.9767580232193
 20
-19.90350929546927
 30
0.0
 11
355.5986842732191
 21
-19.28157397046929
 31
0.0
  0
LINE
  5
11BE5
330
16
100
AcDbEntity
 67
     1
  8
実線
100
AcDbLine
 10
355.0934212732191
 20
-19.90350929546927
 30
0.0
 11
355.5986842732191
 21
-19.39824464546925
 31
0.0
  0
LINE
  5
11BE6
330
16
100
AcDbEntity
 67
     1
  8
実線
100
AcDbLine
 10
355.2101092732191
 20
-19.90350929546927
 30
0.0
 11
355.5986842732191
 21
-19.51492522046929
 31
0.0
  0
LINE
  5
11BE7
330
16
100
AcDbEntity
 67
     1
  8
実線
100
AcDbLine
 10
355.3267725232192
 20
-19.90350929546927
 30
0.0
 11
355.5986842732191
 21
-19.63159507046928
 31
0.0
  0
LINE
  5
11BE8
330
16
100
AcDbEntity
 67
     1
  8
実線
100
AcDbLine
 10
355.4434522732192
 20
-19.90350929546927
 30
0.0
 11
355.5986842732191
 21
-19.74827482046928
 31
0.0
  0
LINE
  5
11BE9
330
16
100
AcDbEntity
 67
     1
  8
実線
100
AcDbLine
 10
355.5601237732192
 20
-19.90350929546927
 30
0.0
 11
355.5986842732191
 21
-19.86494714546925
 31
0.0
  0
LINE
  5
11BEA
330
16
100
AcDbEntity
 67
     1
  8
実線
100
AcDbLine
 10
338.6739395083164
 20
-26.69494647587928
 30
0.0
 11
338.6739395083164
 21
-14.93374516907929
 31
0.0
  0
LINE
  5
11BEB
330
16
100
AcDbEntity
 67
     1
  8
実線
100
AcDbLine
 10
343.9011395083164
 20
-14.93374516907929
 30
0.0
 11
343.9011395083164
 21
-11.01334451567928
 31
0.0
  0
LINE
  5
11BEC
330
16
100
AcDbEntity
 67
     1
  8
実線
100
AcDbLine
 10
338.6739395083164
 20
-14.93374516907929
 30
0.0
 11
343.9011395083164
 21
-14.93374516907929
 31
0.0
  0
LINE
  5
11BED
330
16
100
AcDbEntity
 67
     1
  8
実線
100
AcDbLine
 10
342.5943329743163
 20
-18.85414647587928
 30
0.0
 11
334.7535395083164
 21
-18.85414647587928
 31
0.0
  0
LINE
  5
11BEE
330
16
100
AcDbEntity
 67
     1
  8
実線
100
AcDbLine
 10
379.7315760232192
 20
-22.97707649546929
 30
0.0
 11
384.0064620232192
 21
-22.97707649546929
 31
0.0
  0
LINE
  5
11BEF
330
16
100
AcDbEntity
 67
     1
  8
実線
100
AcDbLine
 10
379.7315760232192
 20
-19.49100929546925
 30
0.0
 11
384.0064620232192
 21
-19.49100929546925
 31
0.0
  0
LINE
  5
11BF0
330
16
100
AcDbEntity
 67
     1
  8
実線
100
AcDbLine
 10
379.7315760232192
 20
-15.98475929546928
 30
0.0
 11
379.7315760232192
 21
-22.97707649546929
 31
0.0
  0
LINE
  5
11BF1
330
16
100
AcDbEntity
 67
     1
  8
実線
100
AcDbLine
 10
379.7315760232192
 20
-15.98475929546928
 30
0.0
 11
384.0064620232192
 21
-15.98475929546928
 31
0.0
  0
LINE
  5
11BF2
330
16
100
AcDbEntity
 67
     1
  8
実線
100
AcDbLine
 10
372.4390710232193
 20
-15.98475929546928
 30
0.0
 11
372.4390710232193
 21
-22.99725929546927
 31
0.0
  0
LINE
  5
11BF3
330
16
100
AcDbEntity
 67
     1
  8
実線
100
AcDbLine
 10
368.4057367732191
 20
-22.99725929546927
 30
0.0
 11
371.5942462732191
 21
-15.98475929546928
 31
0.0
  0
LINE
  5
11BF4
330
16
100
AcDbEntity
 67
     1
  8
実線
100
AcDbLine
 10
365.2172107732192
 20
-15.98475929546928
 30
0.0
 11
368.4057367732191
 21
-22.99725929546927
 31
0.0
  0
LINE
  5
11BF5
330
16
100
AcDbEntity
 67
     1
  8
実線
100
AcDbLine
 10
361.9128465232192
 20
-19.49100929546925
 30
0.0
 11
364.8047107732192
 21
-22.99725929546927
 31
0.0
  0
LINE
  5
11BF6
330
16
100
AcDbEntity
 67
     1
  8
実線
100
AcDbLine
 10
359.0210152732191
 20
-15.98475929546928
 30
0.0
 11
359.0210152732191
 21
-22.99725929546927
 31
0.0
  0
LINE
  5
11BF7
330
16
100
AcDbEntity
 67
     1
  8
実線
100
AcDbLine
 10
359.0210152732191
 20
-19.49100929546925
 30
0.0
 11
363.0515940232192
 21
-19.49100929546925
 31
0.0
  0
LINE
  5
11BF8
330
16
100
AcDbEntity
 67
     1
  8
実線
100
AcDbLine
 10
359.0210152732191
 20
-15.98475929546928
 30
0.0
 11
363.0515940232192
 21
-15.98475929546928
 31
0.0
  0
LINE
  5
11BF9
330
16
100
AcDbEntity
 67
     1
  8
実線
100
AcDbLine
 10
355.5986842732191
 20
-19.90350929546927
 30
0.0
 11
354.7736760232192
 21
-19.90350929546927
 31
0.0
  0
LINE
  5
11BFA
330
16
100
AcDbEntity
 67
     1
  8
実線
100
AcDbLine
 10
355.5986842732191
 20
-19.07850929546928
 30
0.0
 11
355.5986842732191
 21
-19.90350929546927
 31
0.0
  0
LINE
  5
11BFB
330
16
100
AcDbEntity
 67
     1
  8
実線
100
AcDbLine
 10
354.7736760232192
 20
-19.07850929546928
 30
0.0
 11
355.5986842732191
 21
-19.07850929546928
 31
0.0
  0
LINE
  5
11BFC
330
16
100
AcDbEntity
 67
     1
  8
実線
100
AcDbLine
 10
354.7736760232192
 20
-19.90350929546927
 30
0.0
 11
354.7736760232192
 21
-19.07850929546928
 31
0.0
  0
LINE
  5
11BFD
330
16
100
AcDbEntity
 67
     1
  8
実線
100
AcDbLine
 10
346.5741165232192
 20
-19.49100929546925
 30
0.0
 11
351.3513285232192
 21
-19.49100929546925
 31
0.0
  0
LINE
  5
11BFE
330
16
100
AcDbEntity
 67
     1
  8
実線
100
AcDbLine
 10
346.5741165232192
 20
-19.49100929546925
 30
0.0
 11
351.3513285232192
 21
-19.49100929546925
 31
0.0
  0
LINE
  5
11BFF
330
16
100
AcDbEntity
 67
     1
  8
実線
100
AcDbLine
 10
346.5741165232192
 20
-15.98475929546928
 30
0.0
 11
346.5741165232192
 21
-22.99725929546927
 31
0.0
  0
LINE
  5
11C00
330
16
100
AcDbEntity
 67
     1
  8
実線
100
AcDbLine
 10
346.5741165232192
 20
-15.98475929546928
 30
0.0
 11
351.3513285232192
 21
-15.98475929546928
 31
0.0
  0
LINE
  5
11C01
330
16
100
AcDbEntity
 67
     1
  8
実線
100
AcDbLine
 10
334.7535395083164
 20
-16.24054582247928
 30
0.0
 11
334.7535395083164
 21
-18.85414647587928
 31
0.0
  0
LINE
  5
11C02
330
16
100
AcDbEntity
 67
     1
  8
実線
100
AcDbLine
 10
343.9011395083164
 20
-11.01334451567928
 30
0.0
 11
339.9807395083164
 21
-11.01334451567928
 31
0.0
  0
LINE
  5
11C03
330
16
100
AcDbEntity
 67
     1
  8
実線
100
AcDbLine
 10
342.5943329743163
 20
-22.77454712927929
 30
0.0
 11
342.5943329743163
 21
-18.85414647587928
 31
0.0
  0
LINE
  5
11C04
330
16
100
AcDbEntity
 67
     1
  8
実線
100
AcDbLine
 10
334.7535395083164
 20
-22.77454712927929
 30
0.0
 11
342.5943329743163
 21
-22.77454712927929
 31
0.0
  0
LINE
  5
11C05
330
16
100
AcDbEntity
 67
     1
  8
実線
100
AcDbLine
 10
334.7535395083164
 20
-26.69494647587928
 30
0.0
 11
334.7535395083164
 21
-22.77454712927929
 31
0.0
  0
LINE
  5
11C06
330
16
100
AcDbEntity
 67
     1
  8
実線
100
AcDbLine
 10
334.7535395083164
 20
-26.69494647587928
 30
0.0
 11
338.6739395083164
 21
-26.69494647587928
 31
0.0
  0
LINE
  5
11C07
330
16
100
AcDbEntity
 67
     1
  8
0
  6
Continuous
 62
     6
100
AcDbLine
 10
429.2378710616307
 20
-23.78289365351461
 30
0.0
 11
429.2378710616307
 21
-27.78289447851459
 31
0.0
  0
LINE
  5
11C08
330
16
100
AcDbEntity
 67
     1
  8
0
  6
Continuous
 62
     6
100
AcDbLine
 10
373.3628875616308
 20
-9.782894478514585
 30
0.0
 11
373.3628875616308
 21
0.2171055214854149
 31
0.0
  0
LINE
  5
11C09
330
16
100
AcDbEntity
 67
     1
  8
0
  6
Continuous
 62
     7
100
AcDbLine
 10
369.2378958116308
 20
-9.782894478514585
 30
0.0
 11
369.2378958116308
 21
0.2171055214854149
 31
0.0
  0
LINE
  5
11C0A
330
16
100
AcDbEntity
 67
     1
  8
0
  6
Continuous
 62
     6
100
AcDbLine
 10
355.5878875616309
 20
-9.782894478514585
 30
0.0
 11
355.5878875616309
 21
0.2171055214854149
 31
0.0
  0
LINE
  5
11C0B
330
16
100
AcDbEntity
 67
     1
  8
0
  6
Continuous
 62
     7
100
AcDbLine
 10
387.2378710616307
 20
-23.78289365351461
 30
0.0
 11
454.2378710616307
 21
-23.78289365351461
 31
0.0
  0
LINE
  5
11C0C
330
16
100
AcDbEntity
 67
     1
  8
0
  6
Continuous
 62
     7
100
AcDbLine
 10
387.2378710616307
 20
0.2171055214854149
 30
0.0
 11
387.2378710616307
 21
-27.78289200351461
 31
0.0
  0
LINE
  5
11C0D
330
16
100
AcDbEntity
 67
     1
  8
0
  6
Continuous
 62
     7
100
AcDbLine
 10
331.2378710616308
 20
0.2171055214854149
 30
0.0
 11
454.2378710616307
 21
0.2171055214854149
 31
0.0
  0
LINE
  5
11C0E
330
16
100
AcDbEntity
 67
     1
  8
0
  6
Continuous
 62
     7
100
AcDbLine
 10
454.2378710616307
 20
-27.78289447851459
 30
0.0
 11
454.2378710616307
 21
249.2170865214853
 31
0.0
  0
LINE
  5
11C0F
330
16
100
AcDbEntity
 67
     1
  8
0
  6
Continuous
 62
     7
100
AcDbLine
 10
69.23787006163078
 20
249.2170865214853
 30
0.0
 11
69.23787006163078
 21
-27.78289447851459
 31
0.0
  0
MTEXT
  5
11C10
330
16
100
AcDbEntity
 67
     1
  8
実線
100
AcDbMText
 10
420.7378710616307
 20
-3.782893653514611
 30
0.0
 40
2.7
 41
67.0
 71
     5
 72
     5
  1
モービルワークスタンド2
 73
     1
 44
1.0
1001
ACAD
1000
MTEXTBEGIN
1070
    73
1070
     1
1070
    44
1040
1.0
1070
    74
1070
     0
1000
MTEXTEND
  0
ENDSEC
  0
SECTION
  2
OBJECTS
  0
DICTIONARY
  5
C
330
0
100
AcDbDictionary
281
     1
  3
ACAD_CIP_PREVIOUS_PRODUCT_INFO
350
1184D
  3
ACAD_COLOR
350
1182F
  3
ACAD_DETAILVIEWSTYLE
350
11848
  3
ACAD_GROUP
350
D
  3
ACAD_LAYOUT
350
630F
  3
ACAD_MATERIAL
350
117FD
  3
ACAD_MLEADERSTYLE
350
11844
  3
ACAD_MLINESTYLE
350
E
  3
ACAD_PLOTSETTINGS
350
6310
  3
ACAD_PLOTSTYLENAME
350
630D
  3
ACAD_SCALELIST
350
11832
  3
ACAD_SECTIONVIEWSTYLE
350
11846
  3
ACAD_TABLESTYLE
350
11830
  3
ACAD_VISUALSTYLE
350
11816
  3
AcadDim
350
10C35
  3
ACDB_RECOMPOSE_DATA
350
11D63
  3
ACDBHEADERROUNDTRIPXREC
350
11DBC
  3
AcDbVariableDictionary
350
85CA
  3
AcDsDecomposeData
350
11D6A
  3
DWGPROPS
350
11DBB
  0
DICTIONARY
  5
11851
330
2
100
AcDbDictionary
280
     1
281
     1
  3
ACAD_LAYERSTATES
360
11852
  0
DICTIONARY
  5
11C2C
330
F
100
AcDbDictionary
280
     1
281
     1
  3
ADSK_XREC_LAYER_RECONCILED
360
11C2D
  0
DICTIONARY
  5
11859
330
11858
100
AcDbDictionary
280
     1
281
     1
  3
ADSK_XREC_LAYER_RECONCILED
360
11C2E
  0
DICTIONARY
  5
11DC3
330
85C7
100
AcDbDictionary
280
     1
281
     1
  3
ACAD_XREC_ROUNDTRIP
360
11DC4
  0
DICTIONARY
  5
11DC5
330
11A38
100
AcDbDictionary
280
     1
281
     1
  3
ACAD_XREC_ROUNDTRIP
360
11DC6
  0
XRECORD
  5
1184D
102
{ACAD_REACTORS
330
C
102
}
330
C
100
AcDbXrecord
280
     1
300
ACD
300
2014
300
ACD_F_S
  0
DICTIONARY
  5
1182F
102
{ACAD_REACTORS
330
C
102
}
330
C
100
AcDbDictionary
281
     1
  0
DICTIONARY
  5
11848
102
{ACAD_REACTORS
330
C
102
}
330
C
100
AcDbDictionary
281
     1
  3
Metric50
350
11849
  0
DICTIONARY
  5
D
102
{ACAD_REACTORS
330
C
102
}
330
C
100
AcDbDictionary
281
     1
  0
DICTIONARY
  5
630F
102
{ACAD_REACTORS
330
C
102
}
330
C
100
AcDbDictionary
281
     1
  3
Model
350
6311
  3
MWS2-PC
350
6312
  0
DICTIONARY
  5
117FD
102
{ACAD_REACTORS
330
C
102
}
330
C
100
AcDbDictionary
281
     1
  3
ByBlock
350
11806
  3
ByLayer
350
117FE
  3
Global
350
1180E
  0
DICTIONARY
  5
11844
102
{ACAD_REACTORS
330
C
102
}
330
C
100
AcDbDictionary
281
     1
  3
Standard
350
11845
  0
DICTIONARY
  5
E
102
{ACAD_REACTORS
330
C
102
}
330
C
100
AcDbDictionary
281
     1
  3
STANDARD
350
1C
  0
DICTIONARY
  5
6310
102
{ACAD_REACTORS
330
C
102
}
330
C
100
AcDbDictionary
281
     1
  0
ACDBDICTIONARYWDFLT
  5
630D
102
{ACAD_REACTORS
330
C
102
}
330
C
100
AcDbDictionary
281
     1
  3
Normal
350
630E
100
AcDbDictionaryWithDefault
340
630E
  0
DICTIONARY
  5
11832
102
{ACAD_REACTORS
330
C
102
}
330
C
100
AcDbDictionary
281
     1
  3
A0
350
11833
  3
A1
350
11834
  3
A2
350
11835
  3
A3
350
11836
  3
A4
350
11837
  3
A5
350
11838
  3
A6
350
11839
  3
A7
350
1183A
  3
A8
350
1183B
  3
A9
350
1183C
  3
B0
350
1183D
  3
B1
350
1183E
  3
B2
350
1183F
  3
B3
350
11840
  3
B4
350
11841
  3
B5
350
11842
  3
B6
350
11843
  0
DICTIONARY
  5
11846
102
{ACAD_REACTORS
330
C
102
}
330
C
100
AcDbDictionary
281
     1
  3
Metric50
350
11847
  0
DICTIONARY
  5
11830
102
{ACAD_REACTORS
330
C
102
}
330
C
100
AcDbDictionary
281
     1
  3
Standard
350
11831
  0
DICTIONARY
  5
11816
102
{ACAD_REACTORS
330
C
102
}
330
C
100
AcDbDictionary
281
     1
  3
2dWireframe
350
1181C
  3
Basic
350
1181B
  3
Brighten
350
11822
  3
ColorChange
350
11826
  3
Conceptual
350
1181F
  3
Dim
350
11821
  3
EdgeColorOff
350
1182E
  3
Facepattern
350
11825
  3
Flat
350
11817
  3
FlatWithEdges
350
11818
  3
Gouraud
350
11819
  3
GouraudWithEdges
350
1181A
  3
Hidden
350
1181E
  3
JitterOff
350
1182C
  3
Linepattern
350
11824
  3
OverhangOff
350
1182D
  3
Realistic
350
11820
  3
Shaded
350
1182B
  3
Shaded with edges
350
1182A
  3
Shades of Gray
350
11827
  3
Sketchy
350
11828
  3
Thicken
350
11823
  3
Wireframe
350
1181D
  3
X-Ray
350
11829
  0
XRECORD
  5
10C35
102
{ACAD_REACTORS
330
C
102
}
330
C
100
AcDbXrecord
280
     1
 90
   990106
  3

 60
     4
 61
     0
 62
     1
 63
     3
 64
     0
 65
     0
 66
     0
 67
     3
 68
     1
 69
     0
 70
     0
 71
     0
 72
     0
 40
0.0
170
     0
  0
XRECORD
  5
11D63
102
{ACAD_REACTORS
330
C
102
}
330
C
100
AcDbXrecord
280
     1
 90
        1
330
11831
  0
DICTIONARY
  5
11DBC
102
{ACAD_REACTORS
330
C
102
}
330
C
100
AcDbDictionary
281
     1
  3
COLORDICT
350
11DBE
  3
MATERIALDICT
350
11DBD
  0
DICTIONARY
  5
85CA
102
{ACAD_REACTORS
330
C
102
}
330
C
100
AcDbDictionary
281
     1
  3
CANNOSCALE
350
11D5D
  3
CMLEADERSTYLE
350
11D5A
  3
CTABLESTYLE
350
11D59
  3
CVIEWDETAILSTYLE
350
11D5B
  3
CVIEWSECTIONSTYLE
350
11D5C
  3
DIMASSOC
350
11D5F
  3
INDEXCTL
350
11D5E
  3
PROJECTNAME
350
11DBA
  3
SORTENTS
350
85CB
  3
XCLIPFRAME
350
11D60
  0
DICTIONARY
  5
11D6A
102
{ACAD_REACTORS
330
C
102
}
330
C
100
AcDbDictionary
281
     1
  3
AcDsRecords
350
11D6C
  3
AcDsSchemas
350
11D6B
1001
ACAD
1070
     2
  0
XRECORD
  5
11DBB
102
{ACAD_REACTORS
330
C
102
}
330
C
100
AcDbXrecord
280
     1
  1
DWGPROPS COOKIE
  2

  3

  4

  6

  7

  8
SAWATARI
  9

300
=
301
=
302
=
303
=
304
=
305
=
306
=
307
=
308
=
309
=
 40
9.96914462962963
 41
2450571.401945833
 42
2457912.780432569
  1

 90
        0
  0
DICTIONARY
  5
11852
102
{ACAD_REACTORS
330
11851
102
}
330
11851
100
AcDbDictionary
281
     1
  0
XRECORD
  5
11C2D
102
{ACAD_REACTORS
330
11C2C
102
}
330
11C2C
100
AcDbXrecord
280
     1
290
     1
  0
XRECORD
  5
11C2E
102
{ACAD_REACTORS
330
11859
102
}
330
11859
100
AcDbXrecord
280
     1
290
     1
  0
XRECORD
  5
11DC4
102
{ACAD_REACTORS
330
11DC3
102
}
330
11DC3
100
AcDbXrecord
280
     1
102
SHADEPLOT
 70
     0
  0
XRECORD
  5
11DC6
102
{ACAD_REACTORS
330
11DC5
102
}
330
11DC5
100
AcDbXrecord
280
     1
102
SHADEPLOT
 70
     0
  0
ACDBDETAILVIEWSTYLE
  5
11849
102
{ACAD_XDICTIONARY
360
11DAC
102
}
102
{ACAD_REACTORS
330
11848
102
}
330
11848
100
AcDbModelDocViewStyle
 70
     0
  3
Metric50
290
     0
100
AcDbDetailViewStyle
 70
     0
 71
     0
 90
        3
 71
     1
340
10
 40
5.0
340
0
 40
5.0
300

 40
0.0
280
     1
 71
     2
340
15
 90
       25
 71
     3
340
10
 40
5.0
 90
        0
 40
15.0
 90
        1
300
%<\AcVar ViewDetailId>% (%<\AcVar ViewScale \f "%sn">%)
 71
     4
340
15
 90
       25
340
15
 90
       25
280
     0
1001
ACAD
1000
AcRTDxfName
1000
ACDBDETAILVIEWSTYLE
  0
LAYOUT
  5
6311
102
{ACAD_XDICTIONARY
360
11DBF
102
}
102
{ACAD_REACTORS
330
630F
102
}
330
630F
100
AcDbPlotSettings
  1

  2
\\TOGO_SV\HONSYAPRT41
  4
A3
  6
OLE1
 40
5.873749732971191
 41
5.873747825622557
 42
5.70440673828125
 43
5.873748779296875
 44
296.9259948730469
 45
420.1159973144531
 46
0.0
 47
0.0
 48
0.0
 49
0.0
140
0.0
141
0.0
142
1.0
143
1.0
 70
 11936
 72
     1
 73
     1
 74
     1
  7
aclt.ctb
 75
     0
147
1.0
148
0.0308119370290569
149
0.0214623802522738
100
AcDbLayout
  1
Model
 70
     1
 71
     0
 10
0.0
 20
0.0
 11
12.0
 21
9.0
 12
0.0
 22
0.0
 32
0.0
 14
0.0
 24
0.0
 34
0.0
 15
0.0
 25
0.0
 35
0.0
146
0.0
 13
0.0
 23
0.0
 33
0.0
 16
1.0
 26
0.0
 36
0.0
 17
0.0
 27
1.0
 37
0.0
 76
     0
330
19
  0
LAYOUT
  5
6312
102
{ACAD_XDICTIONARY
360
11DC1
102
}
102
{ACAD_REACTORS
330
630F
102
}
330
630F
100
AcDbPlotSettings
  1

  2
Adobe PDF(A3).pc3
  4
A3
  6

 40
3.174999952316283
 41
3.174999952316283
 42
3.17498779296875
 43
3.17498779296875
 44
420.1583251953125
 45
297.0318298339844
 46
-3.095831274986267
 47
-3.159078955650328
 48
44.23787106163078
 49
-37.7828934785146
140
464.2378710616307
141
259.2171065214854
142
1.0
143
1.0
 70
   676
 72
     1
 73
     0
 74
     4
  7
aclt.ctb
 75
    16
147
1.0
148
-44.23787106163078
149
37.7828934785146
100
AcDbLayout
  1
MWS2-PC
 70
     1
 71
     1
 10
44.15870238430076
 20
-37.79881447518054
 11
464.3170275796133
 21
259.2330153588038
 12
0.0
 22
0.0
 32
0.0
 14
44.23787106163078
 24
-37.7828934785146
 34
0.0
 15
464.2378710616307
 25
259.2171065214854
 35
0.0
146
0.0
 13
0.0
 23
0.0
 33
0.0
 16
1.0
 26
0.0
 36
0.0
 17
0.0
 27
1.0
 37
0.0
 76
     0
330
16
331
85C7
1001
ACAD_PSEXT
1000
Adobe PDF(A3).pc3
1000
Adobe PDF Converter
1000
Documents\*.pdf
1000

1070
     0
  0
MATERIAL
  5
11806
330
117FD
100
AcDbMaterial
  1
ByBlock
 72
     0
 43
0.0208333333333333
 43
0.0
 43
0.0
 43
0.0
 43
0.0
 43
0.0208333333333333
 43
0.0
 43
0.0
 43
0.0
 43
0.0
 43
1.0
 43
0.0
 43
0.0
 43
0.0
 43
0.0
 43
1.0
 77
     0
 47
0.0208333333333333
 47
0.0
 47
0.0
 47
0.0
 47
0.0
 47
0.0208333333333333
 47
0.0
 47
0.0
 47
0.0
 47
0.0
 47
1.0
 47
0.0
 47
0.0
 47
0.0
 47
0.0
 47
1.0
171
     0
 49
0.0208333333333333
 49
0.0
 49
0.0
 49
0.0
 49
0.0
 49
0.0208333333333333
 49
0.0
 49
0.0
 49
0.0
 49
0.0
 49
1.0
 49
0.0
 49
0.0
 49
0.0
 49
0.0
 49
1.0
175
     0
142
0.0208333333333333
142
0.0
142
0.0
142
0.0
142
0.0
142
0.0208333333333333
142
0.0
142
0.0
142
0.0
142
0.0
142
1.0
142
0.0
142
0.0
142
0.0
142
0.0
142
1.0
179
     0
144
0.0208333333333333
144
0.0
144
0.0
144
0.0
144
0.0
144
0.0208333333333333
144
0.0
144
0.0
144
0.0
144
0.0
144
1.0
144
0.0
144
0.0
144
0.0
144
0.0
144
1.0
147
0.0208333333333333
147
0.0
147
0.0
147
0.0
147
0.0
147
0.0208333333333333
147
0.0
147
0.0
147
0.0
147
0.0
147
1.0
147
0.0
147
0.0
147
0.0
147
0.0
147
1.0
  0
MATERIAL
  5
117FE
330
117FD
100
AcDbMaterial
  1
ByLayer
 72
     0
 43
0.0208333333333333
 43
0.0
 43
0.0
 43
0.0
 43
0.0
 43
0.0208333333333333
 43
0.0
 43
0.0
 43
0.0
 43
0.0
 43
1.0
 43
0.0
 43
0.0
 43
0.0
 43
0.0
 43
1.0
 77
     0
 47
0.0208333333333333
 47
0.0
 47
0.0
 47
0.0
 47
0.0
 47
0.0208333333333333
 47
0.0
 47
0.0
 47
0.0
 47
0.0
 47
1.0
 47
0.0
 47
0.0
 47
0.0
 47
0.0
 47
1.0
171
     0
 49
0.0208333333333333
 49
0.0
 49
0.0
 49
0.0
 49
0.0
 49
0.0208333333333333
 49
0.0
 49
0.0
 49
0.0
 49
0.0
 49
1.0
 49
0.0
 49
0.0
 49
0.0
 49
0.0
 49
1.0
175
     0
142
0.0208333333333333
142
0.0
142
0.0
142
0.0
142
0.0
142
0.0208333333333333
142
0.0
142
0.0
142
0.0
142
0.0
142
1.0
142
0.0
142
0.0
142
0.0
142
0.0
142
1.0
179
     0
144
0.0208333333333333
144
0.0
144
0.0
144
0.0
144
0.0
144
0.0208333333333333
144
0.0
144
0.0
144
0.0
144
0.0
144
1.0
144
0.0
144
0.0
144
0.0
144
0.0
144
1.0
147
0.0208333333333333
147
0.0
147
0.0
147
0.0
147
0.0
147
0.0208333333333333
147
0.0
147
0.0
147
0.0
147
0.0
147
1.0
147
0.0
147
0.0
147
0.0
147
0.0
147
1.0
  0
MATERIAL
  5
1180E
330
117FD
100
AcDbMaterial
  1
Global
 72
     0
 43
0.0208333333333333
 43
0.0
 43
0.0
 43
0.0
 43
0.0
 43
0.0208333333333333
 43
0.0
 43
0.0
 43
0.0
 43
0.0
 43
1.0
 43
0.0
 43
0.0
 43
0.0
 43
0.0
 43
1.0
 77
     0
 47
0.0208333333333333
 47
0.0
 47
0.0
 47
0.0
 47
0.0
 47
0.0208333333333333
 47
0.0
 47
0.0
 47
0.0
 47
0.0
 47
1.0
 47
0.0
 47
0.0
 47
0.0
 47
0.0
 47
1.0
171
     0
 49
0.0208333333333333
 49
0.0
 49
0.0
 49
0.0
 49
0.0
 49
0.0208333333333333
 49
0.0
 49
0.0
 49
0.0
 49
0.0
 49
1.0
 49
0.0
 49
0.0
 49
0.0
 49
0.0
 49
1.0
175
     0
142
0.0208333333333333
142
0.0
142
0.0
142
0.0
142
0.0
142
0.0208333333333333
142
0.0
142
0.0
142
0.0
142
0.0
142
1.0
142
0.0
142
0.0
142
0.0
142
0.0
142
1.0
179
     0
144
0.0208333333333333
144
0.0
144
0.0
144
0.0
144
0.0
144
0.0208333333333333
144
0.0
144
0.0
144
0.0
144
0.0
144
1.0
144
0.0
144
0.0
144
0.0
144
0.0
144
1.0
147
0.0208333333333333
147
0.0
147
0.0
147
0.0
147
0.0
147
0.0208333333333333
147
0.0
147
0.0
147
0.0
147
0.0
147
1.0
147
0.0
147
0.0
147
0.0
147
0.0
147
1.0
  0
MLEADERSTYLE
  5
11845
102
{ACAD_XDICTIONARY
360
11DA8
102
}
102
{ACAD_REACTORS
330
11844
102
}
330
11844
100
AcDbMLeaderStyle
170
     2
171
     1
172
     0
 90
        2
 40
0.0
 41
0.0
173
     1
 91
-1056964608
340
13
 92
       -2
290
     1
 42
2.0
291
     1
 43
0.36
  3
Standard
 44
4.0
300

342
10
174
     1
178
     6
175
     1
176
     0
 93
-1056964608
 45
4.0
292
     0
297
     0
 46
4.0
 94
-1056964608
 47
1.0
 49
1.0
140
1.0
293
     1
141
0.0
294
     1
177
     0
142
1.0
295
     0
296
     0
143
0.125
1001
ACAD_MLEADERVER
1070
     2
1001
ACAD
1000
AcRTDxfName
1000
MLEADERSTYLE
  0
MLINESTYLE
  5
1C
102
{ACAD_REACTORS
330
E
102
}
330
E
100
AcDbMlineStyle
  2
STANDARD
 70
     0
  3

 62
     0
 51
90.0
 52
90.0
 71
     2
 49
0.5
 62
   256
  6
BYLAYER
 49
-0.5
 62
   256
  6
BYLAYER
  0
ACDBPLACEHOLDER
  5
630E
102
{ACAD_REACTORS
330
630D
102
}
330
630D
  0
SCALE
  5
11833
102
{ACAD_REACTORS
330
11832
102
}
330
11832
100
AcDbScale
 70
     0
300
1:1
140
1.0
141
1.0
290
     1
1001
ACAD
1000
AcRTDxfName
1000
SCALE
  0
SCALE
  5
11834
102
{ACAD_REACTORS
330
11832
102
}
330
11832
100
AcDbScale
 70
     0
300
1:2
140
1.0
141
2.0
290
     0
1001
ACAD
1000
AcRTDxfName
1000
SCALE
  0
SCALE
  5
11835
102
{ACAD_REACTORS
330
11832
102
}
330
11832
100
AcDbScale
 70
     0
300
1:4
140
1.0
141
4.0
290
     0
1001
ACAD
1000
AcRTDxfName
1000
SCALE
  0
SCALE
  5
11836
102
{ACAD_REACTORS
330
11832
102
}
330
11832
100
AcDbScale
 70
     0
300
1:5
140
1.0
141
5.0
290
     0
1001
ACAD
1000
AcRTDxfName
1000
SCALE
  0
SCALE
  5
11837
102
{ACAD_REACTORS
330
11832
102
}
330
11832
100
AcDbScale
 70
     0
300
1:8
140
1.0
141
8.0
290
     0
1001
ACAD
1000
AcRTDxfName
1000
SCALE
  0
SCALE
  5
11838
102
{ACAD_REACTORS
330
11832
102
}
330
11832
100
AcDbScale
 70
     0
300
1:10
140
1.0
141
10.0
290
     0
1001
ACAD
1000
AcRTDxfName
1000
SCALE
  0
SCALE
  5
11839
102
{ACAD_REACTORS
330
11832
102
}
330
11832
100
AcDbScale
 70
     0
300
1:16
140
1.0
141
16.0
290
     0
1001
ACAD
1000
AcRTDxfName
1000
SCALE
  0
SCALE
  5
1183A
102
{ACAD_REACTORS
330
11832
102
}
330
11832
100
AcDbScale
 70
     0
300
1:20
140
1.0
141
20.0
290
     0
1001
ACAD
1000
AcRTDxfName
1000
SCALE
  0
SCALE
  5
1183B
102
{ACAD_REACTORS
330
11832
102
}
330
11832
100
AcDbScale
 70
     0
300
1:30
140
1.0
141
30.0
290
     0
1001
ACAD
1000
AcRTDxfName
1000
SCALE
  0
SCALE
  5
1183C
102
{ACAD_REACTORS
330
11832
102
}
330
11832
100
AcDbScale
 70
     0
300
1:40
140
1.0
141
40.0
290
     0
1001
ACAD
1000
AcRTDxfName
1000
SCALE
  0
SCALE
  5
1183D
102
{ACAD_REACTORS
330
11832
102
}
330
11832
100
AcDbScale
 70
     0
300
1:50
140
1.0
141
50.0
290
     0
1001
ACAD
1000
AcRTDxfName
1000
SCALE
  0
SCALE
  5
1183E
102
{ACAD_REACTORS
330
11832
102
}
330
11832
100
AcDbScale
 70
     0
300
1:100
140
1.0
141
100.0
290
     0
1001
ACAD
1000
AcRTDxfName
1000
SCALE
  0
SCALE
  5
1183F
102
{ACAD_REACTORS
330
11832
102
}
330
11832
100
AcDbScale
 70
     0
300
2:1
140
2.0
141
1.0
290
     0
1001
ACAD
1000
AcRTDxfName
1000
SCALE
  0
SCALE
  5
11840
102
{ACAD_REACTORS
330
11832
102
}
330
11832
100
AcDbScale
 70
     0
300
4:1
140
4.0
141
1.0
290
     0
1001
ACAD
1000
AcRTDxfName
1000
SCALE
  0
SCALE
  5
11841
102
{ACAD_REACTORS
330
11832
102
}
330
11832
100
AcDbScale
 70
     0
300
8:1
140
8.0
141
1.0
290
     0
1001
ACAD
1000
AcRTDxfName
1000
SCALE
  0
SCALE
  5
11842
102
{ACAD_REACTORS
330
11832
102
}
330
11832
100
AcDbScale
 70
     0
300
10:1
140
10.0
141
1.0
290
     0
1001
ACAD
1000
AcRTDxfName
1000
SCALE
  0
SCALE
  5
11843
102
{ACAD_REACTORS
330
11832
102
}
330
11832
100
AcDbScale
 70
     0
300
100:1
140
100.0
141
1.0
290
     0
1001
ACAD
1000
AcRTDxfName
1000
SCALE
  0
ACDBSECTIONVIEWSTYLE
  5
11847
102
{ACAD_XDICTIONARY
360
11DAA
102
}
102
{ACAD_REACTORS
330
11846
102
}
330
11846
100
AcDbModelDocViewStyle
 70
     0
  3
Metric50
290
     0
100
AcDbSectionViewStyle
 70
     0
 71
     0
 90
      102
 71
     1
340
10
 40
5.0
340
0
340
0
 40
5.0
300
I, O, Q, S, X, Z
 40
10.0
 90
        0
 40
2.5
 90
        0
 71
     2
340
15
 90
       25
340
15
 90
       50
 40
5.0
 40
2.5
 40
5.0
 71
     3
340
10
 40
5.0
 90
        0
 40
15.0
 90
        1
300
%<\AcVar ViewSectionStartId>%-%<\AcVar ViewSectionEndId>% (%<\AcVar ViewScale \f "%sn">%)
 71
     4
300
ANSI31
 40
1.0
 90
        0
290
     0
290
     0
 90
        6
 40
0.0
 40
1.570796326794896
 40
0.2617993877991494
 40
1.308996938995747
 40
-0.2617993877991494
 40
1.832595714594045
1001
ACAD
1000
AcRTDxfName
1000
ACDBSECTIONVIEWSTYLE
  0
TABLESTYLE
  5
11831
102
{ACAD_XDICTIONARY
360
11D61
102
}
102
{ACAD_REACTORS
330
11830
102
}
330
11830
100
AcDbTableStyle
  3
Standard
 70
     0
 71
     0
 40
1.5
 41
1.5
280
     0
281
     0
  7
STANDARD
140
4.5
170
     2
 62
     0
 63
     7
283
     0
274
    -2
284
     1
 64
     0
275
    -2
285
     1
 65
     0
276
    -2
286
     1
 66
     0
277
    -2
287
     1
 67
     0
278
    -2
288
     1
 68
     0
279
    -2
289
     1
 69
     0
  7
STANDARD
140
6.0
170
     5
 62
     0
 63
     7
283
     0
274
    -2
284
     1
 64
     0
275
    -2
285
     1
 65
     0
276
    -2
286
     1
 66
     0
277
    -2
287
     1
 67
     0
278
    -2
288
     1
 68
     0
279
    -2
289
     1
 69
     0
  7
STANDARD
140
4.5
170
     5
 62
     0
 63
     7
283
     0
274
    -2
284
     1
 64
     0
275
    -2
285
     1
 65
     0
276
    -2
286
     1
 66
     0
277
    -2
287
     1
 67
     0
278
    -2
288
     1
 68
     0
279
    -2
289
     1
 69
     0
1001
ACAD
1000
AcRTDxfName
1000
TABLESTYLE
  0
VISUALSTYLE
  5
1181C
102
{ACAD_XDICTIONARY
360
11D80
102
}
102
{ACAD_REACTORS
330
11816
102
}
330
11816
100
AcDbVisualStyle
  2
2dWireframe
 70
     4
 71
     0
 72
     2
 73
     0
 90
        0
 40
-0.6
 41
-30.0
 62
     5
 63
     7
 74
     1
 91
        4
 64
     7
 65
   257
 75
     1
175
     1
 42
1.0
 92
        0
 66
   257
 43
1.0
 76
     1
 77
     6
 78
     2
 67
     7
 79
     5
170
     0
171
     0
290
     0
174
     0
 93
        1
 44
0.0
173
     0
291
     0
 45
0.0
1001
ACAD
1000
AcDbSavedByObjectVersion
1070
     0
1001
ACAD
1000
AcRTDxfName
1000
VISUALSTYLE
  0
VISUALSTYLE
  5
1181B
102
{ACAD_XDICTIONARY
360
11D7E
102
}
102
{ACAD_REACTORS
330
11816
102
}
330
11816
100
AcDbVisualStyle
  2
Basic
 70
     7
 71
     1
 72
     0
 73
     1
 90
        0
 40
-0.6
 41
-30.0
 62
     5
 63
     7
 74
     0
 91
        4
 64
     7
 65
   257
 75
     1
175
     1
 42
1.0
 92
        8
 66
     7
 43
1.0
 76
     1
 77
     6
 78
     2
 67
     7
 79
     5
170
     0
171
     0
290
     0
174
     0
 93
        1
 44
0.0
173
     0
291
     1
 45
0.0
1001
ACAD
1000
AcDbSavedByObjectVersion
1070
     0
1001
ACAD
1000
AcRTDxfName
1000
VISUALSTYLE
  0
VISUALSTYLE
  5
11822
102
{ACAD_XDICTIONARY
360
11D8C
102
}
102
{ACAD_REACTORS
330
11816
102
}
330
11816
100
AcDbVisualStyle
  2
Brighten
 70
    12
 71
     2
 72
     2
 73
     0
 90
        0
 40
-0.6
 41
-30.0
 62
     5
 63
     7
 74
     1
 91
        4
 64
     7
 65
   257
 75
     1
175
     1
 42
1.0
 92
        8
 66
     7
 43
1.0
 76
     1
 77
     6
 78
     2
 67
     7
 79
     5
170
     0
171
     0
290
     0
174
     0
 93
        1
 44
50.0
173
     0
291
     1
 45
0.0
1001
ACAD
1000
AcDbSavedByObjectVersion
1070
     0
1001
ACAD
1000
AcRTDxfName
1000
VISUALSTYLE
  0
VISUALSTYLE
  5
11826
102
{ACAD_XDICTIONARY
360
11D94
102
}
102
{ACAD_REACTORS
330
11816
102
}
330
11816
100
AcDbVisualStyle
  2
ColorChange
 70
    16
 71
     2
 72
     2
 73
     3
 90
        0
 40
-0.6
 41
-30.0
 62
     5
 63
     8
 74
     1
 91
        4
 64
     7
 65
   257
 75
     1
175
     1
 42
1.0
 92
        8
 66
     8
 43
1.0
 76
     1
 77
     6
 78
     2
 67
     7
 79
     5
170
     0
171
     0
290
     0
174
     0
 93
        1
 44
0.0
173
     0
291
     1
 45
0.0
1001
ACAD
1000
AcDbSavedByObjectVersion
1070
     0
1001
ACAD
1000
AcRTDxfName
1000
VISUALSTYLE
  0
VISUALSTYLE
  5
1181F
102
{ACAD_XDICTIONARY
360
11D86
102
}
102
{ACAD_REACTORS
330
11816
102
}
330
11816
100
AcDbVisualStyle
  2
Conceptual
 70
     9
 71
     3
 72
     2
 73
     0
 90
        0
 40
-0.6
 41
-30.0
 62
     5
 63
     7
 74
     2
 91
        2
 64
     7
 65
   257
 75
     1
175
     1
 42
179.0
 92
        8
 66
     7
 43
1.0
 76
     1
 77
     6
 78
     2
 67
     7
 79
     3
170
     0
171
     0
290
     0
174
     0
 93
        1
 44
0.0
173
     0
291
     0
 45
0.0
1001
ACAD
1000
AcDbSavedByObjectVersion
1070
     0
1001
ACAD
1000
AcRTDxfName
1000
VISUALSTYLE
  0
VISUALSTYLE
  5
11821
102
{ACAD_XDICTIONARY
360
11D8A
102
}
102
{ACAD_REACTORS
330
11816
102
}
330
11816
100
AcDbVisualStyle
  2
Dim
 70
    11
 71
     2
 72
     2
 73
     0
 90
        0
 40
-0.6
 41
-30.0
 62
     5
 63
     7
 74
     1
 91
        4
 64
     7
 65
   257
 75
     1
175
     1
 42
1.0
 92
        8
 66
     7
 43
1.0
 76
     1
 77
     6
 78
     2
 67
     7
 79
     5
170
     0
171
     0
290
     0
174
     0
 93
        1
 44
-50.0
173
     0
291
     1
 45
0.0
1001
ACAD
1000
AcDbSavedByObjectVersion
1070
     0
1001
ACAD
1000
AcRTDxfName
1000
VISUALSTYLE
  0
VISUALSTYLE
  5
1182E
102
{ACAD_XDICTIONARY
360
11DA4
102
}
102
{ACAD_REACTORS
330
11816
102
}
330
11816
100
AcDbVisualStyle
  2
EdgeColorOff
 70
    22
 71
     2
 72
     2
 73
     0
 90
        0
 40
-0.6
 41
-30.0
 62
     5
 63
     7
 74
     1
 91
        4
 64
     7
 65
   257
 75
     1
175
     1
 42
1.0
 92
        8
 66
     7
 43
1.0
 76
     1
 77
     6
 78
     2
 67
     7
 79
     5
170
     0
171
     0
290
     0
174
     0
 93
        1
 44
0.0
173
     0
291
     1
 45
0.0
1001
ACAD
1000
AcDbSavedByObjectVersion
1070
     0
1001
ACAD
1000
AcRTDxfName
1000
VISUALSTYLE
  0
VISUALSTYLE
  5
11825
102
{ACAD_XDICTIONARY
360
11D92
102
}
102
{ACAD_REACTORS
330
11816
102
}
330
11816
100
AcDbVisualStyle
  2
Facepattern
 70
    15
 71
     2
 72
     2
 73
     0
 90
        0
 40
-0.6
 41
-30.0
 62
     5
 63
     7
 74
     1
 91
        4
 64
     7
 65
   257
 75
     1
175
     1
 42
1.0
 92
        8
 66
     7
 43
1.0
 76
     1
 77
     6
 78
     2
 67
     7
 79
     5
170
     0
171
     0
290
     0
174
     0
 93
        1
 44
0.0
173
     0
291
     1
 45
0.0
1001
ACAD
1000
AcDbSavedByObjectVersion
1070
     0
1001
ACAD
1000
AcRTDxfName
1000
VISUALSTYLE
  0
VISUALSTYLE
  5
11817
102
{ACAD_XDICTIONARY
360
11D76
102
}
102
{ACAD_REACTORS
330
11816
102
}
330
11816
100
AcDbVisualStyle
  2
Flat
 70
     0
 71
     2
 72
     1
 73
     1
 90
        2
 40
-0.6
 41
30.0
 62
     5
 63
     7
 74
     0
 91
        0
 64
     7
 65
   257
 75
     1
175
     1
 42
1.0
 92
        8
 66
     7
 43
1.0
 76
     1
 77
     6
 78
     2
 67
     7
 79
     5
170
     0
171
     0
290
     0
174
     0
 93
       13
 44
0.0
173
     0
291
     1
 45
0.0
1001
ACAD
1000
AcDbSavedByObjectVersion
1070
     0
1001
ACAD
1000
AcRTDxfName
1000
VISUALSTYLE
  0
VISUALSTYLE
  5
11818
102
{ACAD_XDICTIONARY
360
11D78
102
}
102
{ACAD_REACTORS
330
11816
102
}
330
11816
100
AcDbVisualStyle
  2
FlatWithEdges
 70
     1
 71
     2
 72
     1
 73
     1
 90
        2
 40
-0.6
 41
30.0
 62
     5
 63
     7
 74
     1
 91
        0
 64
     7
 65
   257
 75
     1
175
     1
 42
1.0
 92
        0
 66
   257
 43
1.0
 76
     1
 77
     6
 78
     2
 67
     7
 79
     5
170
     0
171
     0
290
     0
174
     0
 93
       13
 44
0.0
173
     0
291
     1
 45
0.0
1001
ACAD
1000
AcDbSavedByObjectVersion
1070
     0
1001
ACAD
1000
AcRTDxfName
1000
VISUALSTYLE
  0
VISUALSTYLE
  5
11819
102
{ACAD_XDICTIONARY
360
11D7A
102
}
102
{ACAD_REACTORS
330
11816
102
}
330
11816
100
AcDbVisualStyle
  2
Gouraud
 70
     2
 71
     2
 72
     2
 73
     1
 90
        2
 40
-0.6
 41
30.0
 62
     5
 63
     7
 74
     0
 91
        0
 64
     7
 65
   257
 75
     1
175
     1
 42
1.0
 92
        0
 66
     7
 43
1.0
 76
     1
 77
     6
 78
     2
 67
     7
 79
     5
170
     0
171
     0
290
     0
174
     0
 93
       13
 44
0.0
173
     0
291
     1
 45
0.0
1001
ACAD
1000
AcDbSavedByObjectVersion
1070
     0
1001
ACAD
1000
AcRTDxfName
1000
VISUALSTYLE
  0
VISUALSTYLE
  5
1181A
102
{ACAD_XDICTIONARY
360
11D7C
102
}
102
{ACAD_REACTORS
330
11816
102
}
330
11816
100
AcDbVisualStyle
  2
GouraudWithEdges
 70
     3
 71
     2
 72
     2
 73
     1
 90
        2
 40
-0.6
 41
30.0
 62
     5
 63
     7
 74
     1
 91
        0
 64
     7
 65
   257
 75
     1
175
     1
 42
1.0
 92
        0
 66
   257
 43
1.0
 76
     1
 77
     6
 78
     2
 67
     7
 79
     5
170
     0
171
     0
290
     0
174
     0
 93
       13
 44
0.0
173
     0
291
     1
 45
0.0
1001
ACAD
1000
AcDbSavedByObjectVersion
1070
     0
1001
ACAD
1000
AcRTDxfName
1000
VISUALSTYLE
  0
VISUALSTYLE
  5
1181E
102
{ACAD_XDICTIONARY
360
11D84
102
}
102
{ACAD_REACTORS
330
11816
102
}
330
11816
100
AcDbVisualStyle
  2
Hidden
 70
     6
 71
     1
 72
     2
 73
     2
 90
        0
 40
-0.6
 41
-30.0
 62
     5
 63
     7
 74
     2
 91
        2
 64
     7
 65
   257
 75
     2
175
     1
 42
40.0
 92
        0
 66
   257
 43
1.0
 76
     1
 77
     6
 78
     2
 67
     7
 79
     3
170
     0
171
     0
290
     0
174
     0
 93
        1
 44
0.0
173
     0
291
     0
 45
0.0
1001
ACAD
1000
AcDbSavedByObjectVersion
1070
     0
1001
ACAD
1000
AcRTDxfName
1000
VISUALSTYLE
  0
VISUALSTYLE
  5
1182C
102
{ACAD_XDICTIONARY
360
11DA0
102
}
102
{ACAD_REACTORS
330
11816
102
}
330
11816
100
AcDbVisualStyle
  2
JitterOff
 70
    20
 71
     2
 72
     2
 73
     0
 90
        0
 40
-0.6
 41
-30.0
 62
     5
 63
     7
 74
     1
 91
        4
 64
     7
 65
   257
 75
     1
175
     1
 42
1.0
 92
       10
 66
     7
 43
1.0
 76
     1
 77
     6
 78
     2
 67
     7
 79
     5
170
     0
171
     0
290
     0
174
     0
 93
        1
 44
0.0
173
     0
291
     1
 45
0.0
1001
ACAD
1000
AcDbSavedByObjectVersion
1070
     0
1001
ACAD
1000
AcRTDxfName
1000
VISUALSTYLE
  0
VISUALSTYLE
  5
11824
102
{ACAD_XDICTIONARY
360
11D90
102
}
102
{ACAD_REACTORS
330
11816
102
}
330
11816
100
AcDbVisualStyle
  2
Linepattern
 70
    14
 71
     2
 72
     2
 73
     0
 90
        0
 40
-0.6
 41
-30.0
 62
     5
 63
     7
 74
     1
 91
        4
 64
     7
 65
   257
 75
     7
175
     7
 42
1.0
 92
        8
 66
     7
 43
1.0
 76
     1
 77
     6
 78
     2
 67
     7
 79
     5
170
     0
171
     0
290
     0
174
     0
 93
        1
 44
0.0
173
     0
291
     1
 45
0.0
1001
ACAD
1000
AcDbSavedByObjectVersion
1070
     0
1001
ACAD
1000
AcRTDxfName
1000
VISUALSTYLE
  0
VISUALSTYLE
  5
1182D
102
{ACAD_XDICTIONARY
360
11DA2
102
}
102
{ACAD_REACTORS
330
11816
102
}
330
11816
100
AcDbVisualStyle
  2
OverhangOff
 70
    21
 71
     2
 72
     2
 73
     0
 90
        0
 40
-0.6
 41
-30.0
 62
     5
 63
     7
 74
     1
 91
        4
 64
     7
 65
   257
 75
     1
175
     1
 42
1.0
 92
        9
 66
     7
 43
1.0
 76
     1
 77
     6
 78
     2
 67
     7
 79
     5
170
     0
171
     0
290
     0
174
     0
 93
        1
 44
0.0
173
     0
291
     1
 45
0.0
1001
ACAD
1000
AcDbSavedByObjectVersion
1070
     0
1001
ACAD
1000
AcRTDxfName
1000
VISUALSTYLE
  0
VISUALSTYLE
  5
11820
102
{ACAD_XDICTIONARY
360
11D88
102
}
102
{ACAD_REACTORS
330
11816
102
}
330
11816
100
AcDbVisualStyle
  2
Realistic
 70
     8
 71
     2
 72
     3
 73
     0
 90
        2
 40
-0.6
 41
30.0
 62
     5
 63
     7
 74
     0
 91
        0
 64
     7
 65
   257
 75
     1
175
     1
 42
1.0
 92
        8
 66
   257
 43
1.0
 76
     1
 77
     6
 78
     2
 67
     7
 79
     3
170
     0
171
     0
290
     0
174
     0
 93
       13
 44
0.0
173
     0
291
     0
 45
0.0
1001
ACAD
1000
AcDbSavedByObjectVersion
1070
     0
1001
ACAD
1000
AcRTDxfName
1000
VISUALSTYLE
  0
VISUALSTYLE
  5
1182B
102
{ACAD_XDICTIONARY
360
11D9E
102
}
102
{ACAD_REACTORS
330
11816
102
}
330
11816
100
AcDbVisualStyle
  2
Shaded
 70
    27
 71
     2
 72
     2
 73
     1
 90
        2
 40
-0.6
 41
30.0
 62
     5
 63
     7
 74
     0
 91
        4
 64
     7
 65
   257
 75
     1
175
     1
 42
1.0
 92
        8
 66
   257
 43
1.0
 76
     1
 77
     6
 78
     2
 67
     8
 79
     3
170
     0
171
     0
290
     0
174
     0
 93
        5
 44
0.0
173
     0
291
     0
 45
0.0
1001
ACAD
1000
AcDbSavedByObjectVersion
1070
     0
1001
ACAD
1000
AcRTDxfName
1000
VISUALSTYLE
  0
VISUALSTYLE
  5
1182A
102
{ACAD_XDICTIONARY
360
11D9C
102
}
102
{ACAD_REACTORS
330
11816
102
}
330
11816
100
AcDbVisualStyle
  2
Shaded with edges
 70
    26
 71
     2
 72
     2
 73
     1
 90
        2
 40
-0.6
 41
30.0
 62
     5
 63
     7
 74
     1
 91
       10
 64
     7
 65
   257
 75
     2
175
     1
 42
1.0
 92
        8
 66
   257
 43
1.0
 76
     1
 77
     6
 78
     2
 67
     7
 79
     3
170
     0
171
     0
290
     0
174
     0
 93
        5
 44
0.0
173
     0
291
     0
 45
0.0
1001
ACAD
1000
AcDbSavedByObjectVersion
1070
     0
1001
ACAD
1000
AcRTDxfName
1000
VISUALSTYLE
  0
VISUALSTYLE
  5
11827
102
{ACAD_XDICTIONARY
360
11D96
102
}
102
{ACAD_REACTORS
330
11816
102
}
330
11816
100
AcDbVisualStyle
  2
Shades of Gray
 70
    23
 71
     2
 72
     2
 73
     3
 90
        0
 40
-0.6
 41
-30.0
 62
     5
 63
     7
 74
     2
 91
        2
 64
     7
 65
     7
 75
     1
175
     1
 42
40.0
 92
        8
 66
     7
 43
1.0
 76
     1
 77
     6
 78
     2
 67
     7
 79
     3
170
     0
171
     0
290
     0
174
     0
 93
        1
 44
0.0
173
     0
291
     0
 45
0.0
1001
ACAD
1000
AcDbSavedByObjectVersion
1070
     0
1001
ACAD
1000
AcRTDxfName
1000
VISUALSTYLE
  0
VISUALSTYLE
  5
11828
102
{ACAD_XDICTIONARY
360
11D98
102
}
102
{ACAD_REACTORS
330
11816
102
}
330
11816
100
AcDbVisualStyle
  2
Sketchy
 70
    24
 71
     1
 72
     2
 73
     2
 90
        0
 40
-0.6
 41
-30.0
 62
     5
 63
     7
 74
     2
 91
        2
 64
     7
 65
     7
 75
     1
175
     1
 42
40.0
 92
       11
 66
     7
 43
1.0
 76
     1
 77
     6
 78
     2
 67
     7
 79
     6
170
     0
171
     0
290
     0
174
     0
 93
        1
 44
0.0
173
     0
291
     0
 45
0.0
1001
ACAD
1000
AcDbSavedByObjectVersion
1070
     0
1001
ACAD
1000
AcRTDxfName
1000
VISUALSTYLE
  0
VISUALSTYLE
  5
11823
102
{ACAD_XDICTIONARY
360
11D8E
102
}
102
{ACAD_REACTORS
330
11816
102
}
330
11816
100
AcDbVisualStyle
  2
Thicken
 70
    13
 71
     2
 72
     2
 73
     0
 90
        0
 40
-0.6
 41
-30.0
 62
     5
 63
     7
 74
     1
 91
        4
 64
     7
 65
   257
 75
     1
175
     1
 42
1.0
 92
       12
 66
     7
 43
1.0
 76
     1
 77
     6
 78
     2
 67
     7
 79
     5
170
     0
171
     0
290
     0
174
     0
 93
        1
 44
0.0
173
     0
291
     1
 45
0.0
1001
ACAD
1000
AcDbSavedByObjectVersion
1070
     0
1001
ACAD
1000
AcRTDxfName
1000
VISUALSTYLE
  0
VISUALSTYLE
  5
1181D
102
{ACAD_XDICTIONARY
360
11D82
102
}
102
{ACAD_REACTORS
330
11816
102
}
330
11816
100
AcDbVisualStyle
  2
Wireframe
 70
     5
 71
     0
 72
     2
 73
     0
 90
        0
 40
-0.6
 41
-30.0
 62
     5
 63
     7
 74
     1
 91
        4
 64
     7
 65
   257
 75
     1
175
     1
 42
1.0
 92
        0
 66
   257
 43
1.0
 76
     1
 77
     6
 78
     2
 67
     7
 79
     3
170
     0
171
     0
290
     0
174
     0
 93
        1
 44
0.0
173
     0
291
     0
 45
0.0
1001
ACAD
1000
AcDbSavedByObjectVersion
1070
     0
1001
ACAD
1000
AcRTDxfName
1000
VISUALSTYLE
  0
VISUALSTYLE
  5
11829
102
{ACAD_XDICTIONARY
360
11D9A
102
}
102
{ACAD_REACTORS
330
11816
102
}
330
11816
100
AcDbVisualStyle
  2
X-Ray
 70
    25
 71
     2
 72
     2
 73
     1
 90
        1
 40
0.5
 41
-30.0
 62
     5
 63
     7
 74
     1
 91
        0
 64
     7
 65
   257
 75
     1
175
     1
 42
1.0
 92
        8
 66
     7
 43
1.0
 76
     1
 77
     6
 78
     2
 67
     7
 79
     3
170
     0
171
     0
290
     0
174
     0
 93
       13
 44
0.0
173
     0
291
     0
 45
0.0
1001
ACAD
1000
AcDbSavedByObjectVersion
1070
     0
1001
ACAD
1000
AcRTDxfName
1000
VISUALSTYLE
  0
XRECORD
  5
11DBE
102
{ACAD_REACTORS
330
11DBC
102
}
330
11DBC
100
AcDbXrecord
280
     1
340
1182F
  0
XRECORD
  5
11DBD
102
{ACAD_REACTORS
330
11DBC
102
}
330
11DBC
100
AcDbXrecord
280
     1
340
117FD
  0
DICTIONARYVAR
  5
11D5D
102
{ACAD_REACTORS
330
85CA
102
}
330
85CA
100
DictionaryVariables
280
     0
  1
1:1
  0
DICTIONARYVAR
  5
11D5A
102
{ACAD_REACTORS
330
85CA
102
}
330
85CA
100
DictionaryVariables
280
     0
  1
STANDARD
  0
DICTIONARYVAR
  5
11D59
102
{ACAD_REACTORS
330
85CA
102
}
330
85CA
100
DictionaryVariables
280
     0
  1
STANDARD
  0
DICTIONARYVAR
  5
11D5B
102
{ACAD_REACTORS
330
85CA
102
}
330
85CA
100
DictionaryVariables
280
     0
  1
Metric50
  0
DICTIONARYVAR
  5
11D5C
102
{ACAD_REACTORS
330
85CA
102
}
330
85CA
100
DictionaryVariables
280
     0
  1
Metric50
  0
DICTIONARYVAR
  5
11D5F
102
{ACAD_REACTORS
330
85CA
102
}
330
85CA
100
DictionaryVariables
280
     0
  1
1
  0
DICTIONARYVAR
  5
11D5E
102
{ACAD_REACTORS
330
85CA
102
}
330
85CA
100
DictionaryVariables
280
     0
  1
0
  0
DICTIONARYVAR
  5
11DBA
102
{ACAD_REACTORS
330
85CA
102
}
330
85CA
100
DictionaryVariables
280
     0
  1

  0
DICTIONARYVAR
  5
85CB
102
{ACAD_REACTORS
330
85CA
102
}
330
85CA
100
DictionaryVariables
280
     0
  1
96
  0
DICTIONARYVAR
  5
11D60
102
{ACAD_REACTORS
330
85CA
102
}
330
85CA
100
DictionaryVariables
280
     0
  1
0
  0
DICTIONARY
  5
11D6C
102
{ACAD_REACTORS
330
11D6A
102
}
330
11D6A
100
AcDbDictionary
281
     1
  0
DICTIONARY
  5
11D6B
102
{ACAD_REACTORS
330
11D6A
102
}
330
11D6A
100
AcDbDictionary
281
     1
  3
8796083719760
350
11D65
  3
8796083719776
350
11D66
  3
8796083719792
350
11D67
  3
8796083719808
350
11D68
  3
8796083719824
350
11D69
  0
DICTIONARY
  5
11DAC
330
11849
100
AcDbDictionary
280
     1
281
     1
  3
ACAD_XREC_ROUNDTRIP
360
11DAD
  0
DICTIONARY
  5
11DBF
330
6311
100
AcDbDictionary
280
     1
281
     1
  3
ACAD_XREC_ROUNDTRIP
360
11DC0
  0
DICTIONARY
  5
11DC1
330
6312
100
AcDbDictionary
280
     1
281
     1
  3
ACAD_XREC_ROUNDTRIP
360
11DC2
  0
DICTIONARY
  5
11DA8
330
11845
100
AcDbDictionary
280
     1
281
     1
  3
ACAD_XREC_ROUNDTRIP
360
11DA9
  0
DICTIONARY
  5
11DAA
330
11847
100
AcDbDictionary
280
     1
281
     1
  3
ACAD_XREC_ROUNDTRIP
360
11DAB
  0
DICTIONARY
  5
11D61
330
11831
100
AcDbDictionary
280
     1
281
     1
  3
ACAD_ROUNDTRIP_2008_TABLESTYLE_CELLSTYLEMAP
360
11D62
  3
ACAD_XREC_ROUNDTRIP
360
11DA6
  0
DICTIONARY
  5
11D80
330
1181C
100
AcDbDictionary
280
     1
281
     1
  3
ACAD_XREC_ROUNDTRIP
360
11D81
  0
DICTIONARY
  5
11D7E
330
1181B
100
AcDbDictionary
280
     1
281
     1
  3
ACAD_XREC_ROUNDTRIP
360
11D7F
  0
DICTIONARY
  5
11D8C
330
11822
100
AcDbDictionary
280
     1
281
     1
  3
ACAD_XREC_ROUNDTRIP
360
11D8D
  0
DICTIONARY
  5
11D94
330
11826
100
AcDbDictionary
280
     1
281
     1
  3
ACAD_XREC_ROUNDTRIP
360
11D95
  0
DICTIONARY
  5
11D86
330
1181F
100
AcDbDictionary
280
     1
281
     1
  3
ACAD_XREC_ROUNDTRIP
360
11D87
  0
DICTIONARY
  5
11D8A
330
11821
100
AcDbDictionary
280
     1
281
     1
  3
ACAD_XREC_ROUNDTRIP
360
11D8B
  0
DICTIONARY
  5
11DA4
330
1182E
100
AcDbDictionary
280
     1
281
     1
  3
ACAD_XREC_ROUNDTRIP
360
11DA5
  0
DICTIONARY
  5
11D92
330
11825
100
AcDbDictionary
280
     1
281
     1
  3
ACAD_XREC_ROUNDTRIP
360
11D93
  0
DICTIONARY
  5
11D76
330
11817
100
AcDbDictionary
280
     1
281
     1
  3
ACAD_XREC_ROUNDTRIP
360
11D77
  0
DICTIONARY
  5
11D78
330
11818
100
AcDbDictionary
280
     1
281
     1
  3
ACAD_XREC_ROUNDTRIP
360
11D79
  0
DICTIONARY
  5
11D7A
330
11819
100
AcDbDictionary
280
     1
281
     1
  3
ACAD_XREC_ROUNDTRIP
360
11D7B
  0
DICTIONARY
  5
11D7C
330
1181A
100
AcDbDictionary
280
     1
281
     1
  3
ACAD_XREC_ROUNDTRIP
360
11D7D
  0
DICTIONARY
  5
11D84
330
1181E
100
AcDbDictionary
280
     1
281
     1
  3
ACAD_XREC_ROUNDTRIP
360
11D85
  0
DICTIONARY
  5
11DA0
330
1182C
100
AcDbDictionary
280
     1
281
     1
  3
ACAD_XREC_ROUNDTRIP
360
11DA1
  0
DICTIONARY
  5
11D90
330
11824
100
AcDbDictionary
280
     1
281
     1
  3
ACAD_XREC_ROUNDTRIP
360
11D91
  0
DICTIONARY
  5
11DA2
330
1182D
100
AcDbDictionary
280
     1
281
     1
  3
ACAD_XREC_ROUNDTRIP
360
11DA3
  0
DICTIONARY
  5
11D88
330
11820
100
AcDbDictionary
280
     1
281
     1
  3
ACAD_XREC_ROUNDTRIP
360
11D89
  0
DICTIONARY
  5
11D9E
330
1182B
100
AcDbDictionary
280
     1
281
     1
  3
ACAD_XREC_ROUNDTRIP
360
11D9F
  0
DICTIONARY
  5
11D9C
330
1182A
100
AcDbDictionary
280
     1
281
     1
  3
ACAD_XREC_ROUNDTRIP
360
11D9D
  0
DICTIONARY
  5
11D96
330
11827
100
AcDbDictionary
280
     1
281
     1
  3
ACAD_XREC_ROUNDTRIP
360
11D97
  0
DICTIONARY
  5
11D98
330
11828
100
AcDbDictionary
280
     1
281
     1
  3
ACAD_XREC_ROUNDTRIP
360
11D99
  0
DICTIONARY
  5
11D8E
330
11823
100
AcDbDictionary
280
     1
281
     1
  3
ACAD_XREC_ROUNDTRIP
360
11D8F
  0
DICTIONARY
  5
11D82
330
1181D
100
AcDbDictionary
280
     1
281
     1
  3
ACAD_XREC_ROUNDTRIP
360
11D83
  0
DICTIONARY
  5
11D9A
330
11829
100
AcDbDictionary
280
     1
281
     1
  3
ACAD_XREC_ROUNDTRIP
360
11D9B
  0
XRECORD
  5
11D65
102
{ACAD_REACTORS
330
11D6B
102
}
330
11D6B
100
AcDbXrecord
280
     1
  1
AcDb_Thumbnail_Schema
102
{ATTRRECORD
341
11D66
  2
AcDbDs::TreatedAsObjectData
280
     1
291
     1
102
ATTRRECORD}
102
{ATTRRECORD
341
11D67
  2
AcDbDs::Legacy
280
     1
291
     1
102
ATTRRECORD}
  2
AcDbDs::ID
280
    10
 91
        8
102
{ATTRRECORD
341
11D68
  2
AcDs:Indexable
280
     1
291
     1
102
ATTRRECORD}
102
{ATTRRECORD
341
11D69
  2
AcDbDs::HandleAttribute
280
     7
282
     1
102
ATTRRECORD}
  2
Thumbnail_Data
280
    15
 91
        0
  0
XRECORD
  5
11D66
102
{ACAD_REACTORS
330
11D6B
102
}
330
11D6B
100
AcDbXrecord
280
     1
  1
AcDbDs::TreatedAsObjectDataSchema
  2
AcDbDs::TreatedAsObjectData
280
     1
 91
        0
  0
XRECORD
  5
11D67
102
{ACAD_REACTORS
330
11D6B
102
}
330
11D6B
100
AcDbXrecord
280
     1
  1
AcDbDs::LegacySchema
  2
AcDbDs::Legacy
280
     1
 91
        0
  0
XRECORD
  5
11D68
102
{ACAD_REACTORS
330
11D6B
102
}
330
11D6B
100
AcDbXrecord
280
     1
  1
AcDbDs::IndexedPropertySchema
  2
AcDs:Indexable
280
     1
 91
        0
  0
XRECORD
  5
11D69
102
{ACAD_REACTORS
330
11D6B
102
}
330
11D6B
100
AcDbXrecord
280
     1
  1
AcDbDs::HandleAttributeSchema
  2
AcDbDs::HandleAttribute
280
     7
 91
        1
284
     1
  0
XRECORD
  5
11DAD
102
{ACAD_REACTORS
330
11DAC
102
}
330
11DAC
100
AcDbXrecord
280
     1
102
DISPLAYNAME
  1
Metric50
102
FLAGS
 90
        0
  0
XRECORD
  5
11DC0
102
{ACAD_REACTORS
330
11DBF
102
}
330
11DBF
100
AcDbXrecord
280
     1
102
SHADEPLOT
 70
     0
102
SHADEPLOTRESLEVEL
 70
     2
102
SHADEPLOTCUSTOMDPI
 70
   300
  0
XRECORD
  5
11DC2
102
{ACAD_REACTORS
330
11DC1
102
}
330
11DC1
100
AcDbXrecord
280
     1
102
SHADEPLOT
 70
     1
102
SHADEPLOTRESLEVEL
 70
     2
102
SHADEPLOTCUSTOMDPI
 70
   300
  0
XRECORD
  5
11DA9
102
{ACAD_REACTORS
330
11DA8
102
}
330
11DA8
100
AcDbXrecord
280
     1
102
ACAD_ROUNDTRIP_2012_MLEADER_STYLE
298
     1
  0
XRECORD
  5
11DAB
102
{ACAD_REACTORS
330
11DAA
102
}
330
11DAA
100
AcDbXrecord
280
     1
102
DISPLAYNAME
  1
Metric50
102
FLAGS
 90
        0
  0
CELLSTYLEMAP
  5
11D62
102
{ACAD_REACTORS
330
11D61
102
}
330
11D61
100
AcDbCellStyleMap
 90
        3
300
CELLSTYLE
  1
TABLEFORMAT_BEGIN
 90
        5
170
     1
 91
        0
 92
    32768
 62
   257
 93
        1
300
CONTENTFORMAT
  1
CONTENTFORMAT_BEGIN
 90
        0
 91
        0
 92
      512
 93
        0
300

 40
0.0
140
1.0
 94
        5
 62
     0
340
10
144
6.0
309
CONTENTFORMAT_END
171
     1
301
MARGIN
  1
CELLMARGIN_BEGIN
 40
1.5
 40
1.5
 40
1.5
 40
1.5
 40
4.5
 40
4.5
309
CELLMARGIN_END
 94
        6
 95
        1
302
GRIDFORMAT
  1
GRIDFORMAT_BEGIN
 90
        0
 91
        1
 62
     0
 92
       -2
340
0
 93
        0
 40
1.125
309
GRIDFORMAT_END
 95
        2
302
GRIDFORMAT
  1
GRIDFORMAT_BEGIN
 90
        0
 91
        1
 62
     0
 92
       -2
340
0
 93
        0
 40
1.125
309
GRIDFORMAT_END
 95
        4
302
GRIDFORMAT
  1
GRIDFORMAT_BEGIN
 90
        0
 91
        1
 62
     0
 92
       -2
340
0
 93
        0
 40
1.125
309
GRIDFORMAT_END
 95
        8
302
GRIDFORMAT
  1
GRIDFORMAT_BEGIN
 90
        0
 91
        1
 62
     0
 92
       -2
340
0
 93
        0
 40
1.125
309
GRIDFORMAT_END
 95
       16
302
GRIDFORMAT
  1
GRIDFORMAT_BEGIN
 90
        0
 91
        1
 62
     0
 92
       -2
340
0
 93
        0
 40
1.125
309
GRIDFORMAT_END
 95
       32
302
GRIDFORMAT
  1
GRIDFORMAT_BEGIN
 90
        0
 91
        1
 62
     0
 92
       -2
340
0
 93
        0
 40
1.125
309
GRIDFORMAT_END
309
TABLEFORMAT_END
  1
CELLSTYLE_BEGIN
 90
        1
 91
        1
300
_TITLE
309
CELLSTYLE_END
300
CELLSTYLE
  1
TABLEFORMAT_BEGIN
 90
        5
170
     1
 91
        0
 92
        0
 62
   257
 93
        1
300
CONTENTFORMAT
  1
CONTENTFORMAT_BEGIN
 90
        0
 91
        0
 92
      512
 93
        0
300

 40
0.0
140
1.0
 94
        5
 62
     0
340
10
144
4.5
309
CONTENTFORMAT_END
171
     1
301
MARGIN
  1
CELLMARGIN_BEGIN
 40
1.5
 40
1.5
 40
1.5
 40
1.5
 40
4.5
 40
4.5
309
CELLMARGIN_END
 94
        6
 95
        1
302
GRIDFORMAT
  1
GRIDFORMAT_BEGIN
 90
        0
 91
        1
 62
     0
 92
       -2
340
0
 93
        0
 40
1.125
309
GRIDFORMAT_END
 95
        2
302
GRIDFORMAT
  1
GRIDFORMAT_BEGIN
 90
        0
 91
        1
 62
     0
 92
       -2
340
0
 93
        0
 40
1.125
309
GRIDFORMAT_END
 95
        4
302
GRIDFORMAT
  1
GRIDFORMAT_BEGIN
 90
        0
 91
        1
 62
     0
 92
       -2
340
0
 93
        0
 40
1.125
309
GRIDFORMAT_END
 95
        8
302
GRIDFORMAT
  1
GRIDFORMAT_BEGIN
 90
        0
 91
        1
 62
     0
 92
       -2
340
0
 93
        0
 40
1.125
309
GRIDFORMAT_END
 95
       16
302
GRIDFORMAT
  1
GRIDFORMAT_BEGIN
 90
        0
 91
        1
 62
     0
 92
       -2
340
0
 93
        0
 40
1.125
309
GRIDFORMAT_END
 95
       32
302
GRIDFORMAT
  1
GRIDFORMAT_BEGIN
 90
        0
 91
        1
 62
     0
 92
       -2
340
0
 93
        0
 40
1.125
309
GRIDFORMAT_END
309
TABLEFORMAT_END
  1
CELLSTYLE_BEGIN
 90
        2
 91
        1
300
_HEADER
309
CELLSTYLE_END
300
CELLSTYLE
  1
TABLEFORMAT_BEGIN
 90
        5
170
     1
 91
        0
 92
        0
 62
   257
 93
        1
300
CONTENTFORMAT
  1
CONTENTFORMAT_BEGIN
 90
        0
 91
        0
 92
      512
 93
        0
300

 40
0.0
140
1.0
 94
        2
 62
     0
340
10
144
4.5
309
CONTENTFORMAT_END
171
     1
301
MARGIN
  1
CELLMARGIN_BEGIN
 40
1.5
 40
1.5
 40
1.5
 40
1.5
 40
4.5
 40
4.5
309
CELLMARGIN_END
 94
        6
 95
        1
302
GRIDFORMAT
  1
GRIDFORMAT_BEGIN
 90
        0
 91
        1
 62
     0
 92
       -2
340
0
 93
        0
 40
1.125
309
GRIDFORMAT_END
 95
        2
302
GRIDFORMAT
  1
GRIDFORMAT_BEGIN
 90
        0
 91
        1
 62
     0
 92
       -2
340
0
 93
        0
 40
1.125
309
GRIDFORMAT_END
 95
        4
302
GRIDFORMAT
  1
GRIDFORMAT_BEGIN
 90
        0
 91
        1
 62
     0
 92
       -2
340
0
 93
        0
 40
1.125
309
GRIDFORMAT_END
 95
        8
302
GRIDFORMAT
  1
GRIDFORMAT_BEGIN
 90
        0
 91
        1
 62
     0
 92
       -2
340
0
 93
        0
 40
1.125
309
GRIDFORMAT_END
 95
       16
302
GRIDFORMAT
  1
GRIDFORMAT_BEGIN
 90
        0
 91
        1
 62
     0
 92
       -2
340
0
 93
        0
 40
1.125
309
GRIDFORMAT_END
 95
       32
302
GRIDFORMAT
  1
GRIDFORMAT_BEGIN
 90
        0
 91
        1
 62
     0
 92
       -2
340
0
 93
        0
 40
1.125
309
GRIDFORMAT_END
309
TABLEFORMAT_END
  1
CELLSTYLE_BEGIN
 90
        3
 91
        2
300
_DATA
309
CELLSTYLE_END
1001
ACAD
1000
AcRTDxfName
1000
CELLSTYLEMAP
  0
XRECORD
  5
11DA6
102
{ACAD_REACTORS
330
11D61
102
}
330
11D61
100
AcDbXrecord
280
     1
102
ACAD_ROUNDTRIP_PRE2007_TABLESTYLE
 90
      512
 91
        0
  1

 92
      512
 93
        0
  2

 94
      512
 95
        0
  3

  0
XRECORD
  5
11D81
102
{ACAD_REACTORS
330
11D80
102
}
330
11D80
100
AcDbXrecord
280
     1
102
RTVSPost2010Prop28
280
     1
102
RTVSPost2010PropOp28
 70
     1
102
RTVSPost2010Prop29
280
     1
102
RTVSPost2010PropOp29
 70
     1
102
RTVSPost2010Prop30
280
     0
102
RTVSPost2010PropOp30
 70
     1
102
RTVSPost2010Prop31
280
     0
102
RTVSPost2010PropOp31
 70
     1
102
RTVSPost2010Prop32
280
     0
102
RTVSPost2010PropOp32
 70
     1
102
RTVSPost2010Prop33
280
     0
102
RTVSPost2010PropOp33
 70
     1
102
RTVSPost2010Prop34
280
     0
102
RTVSPost2010PropOp34
 70
     1
102
RTVSPost2010Prop35
280
     0
102
RTVSPost2010PropOp35
 70
     1
102
RTVSPost2010Prop36
280
     0
102
RTVSPost2010PropOp36
 70
     1
102
RTVSPost2010Prop37
 90
       50
102
RTVSPost2010PropOp37
 70
     1
102
RTVSPost2010Prop38
140
0.0
102
RTVSPost2010PropOp38
 70
     1
102
RTVSPost2010Prop39
140
1.0
102
RTVSPost2010PropOp39
 70
     1
102
RTVSPost2010Prop40
 90
        0
102
RTVSPost2010PropOp40
 70
     1
102
RTVSPost2010Prop41ColorIndex
 90
       18
102
RTVSPost2010Prop41ColorRGB
 90
        0
102
RTVSPost2010PropOp41
 70
     1
102
RTVSPost2010Prop42
 90
       50
102
RTVSPost2010PropOp42
 70
     1
102
RTVSPost2010Prop43
 90
        3
102
RTVSPost2010PropOp43
 70
     1
102
RTVSPost2010Prop44ColorIndex
 90
        5
102
RTVSPost2010Prop44ColorRGB
 90
      255
102
RTVSPost2010PropOp44
 70
     1
102
RTVSPost2010Prop45
280
     0
102
RTVSPost2010PropOp45
 70
     1
102
RTVSPost2010Prop46
 90
       50
102
RTVSPost2010PropOp46
 70
     1
102
RTVSPost2010Prop47
 90
       50
102
RTVSPost2010PropOp47
 70
     1
102
RTVSPost2010Prop48
 90
       50
102
RTVSPost2010PropOp48
 70
     1
102
RTVSPost2010Prop49
280
     0
102
RTVSPost2010PropOp49
 70
     1
102
RTVSPost2010Prop50
 90
       50
102
RTVSPost2010PropOp50
 70
     1
102
RTVSPost2010Prop51ColorIndex
 90
      256
102
RTVSPost2010Prop51ColorRGB
 90
-16777216
102
RTVSPost2010PropOp51
 70
     0
102
RTVSPost2010Prop52
140
1.0
102
RTVSPost2010PropOp52
 70
     0
102
RTVSPost2010Prop53
 90
        2
102
RTVSPost2010PropOp53
 70
     1
102
RTVSPost2010Prop54
  1
strokes_ogs.tif
102
RTVSPost2010PropOp54
 70
     1
102
RTVSPost2010Prop55
280
     0
102
RTVSPost2010PropOp55
 70
     1
102
RTVSPost2010Prop56
140
1.0
102
RTVSPost2010PropOp56
 70
     1
102
RTVSPost2010Prop57
140
1.0
102
RTVSPost2010PropOp57
 70
     1
102
RTVSPropertyOp0
 70
     1
102
RTVSPropertyOp1
 70
     1
102
RTVSPropertyOp2
 70
     1
102
RTVSPropertyOp3
 70
     1
102
RTVSPropertyOp4
 70
     1
102
RTVSPropertyOp5
 70
     1
102
RTVSPropertyOp6
 70
     1
102
RTVSPropertyOp7
 70
     1
102
RTVSPropertyOp8
 70
     1
102
RTVSPropertyOp9
 70
     1
102
RTVSPropertyOp10
 70
     1
102
RTVSPropertyOp11
 70
     1
102
RTVSPropertyOp12
 70
     1
102
RTVSPropertyOp13
 70
     1
102
RTVSPropertyOp14
 70
     1
102
RTVSPropertyOp15
 70
     1
102
RTVSPropertyOp16
 70
     1
102
RTVSPropertyOp17
 70
     1
102
RTVSPropertyOp18
 70
     1
102
RTVSPropertyOp19
 70
     1
102
RTVSPropertyOp20
 70
     1
102
RTVSPropertyOp21
 70
     1
102
RTVSPropertyOp22
 70
     1
102
RTVSPropertyOp23
 70
     1
102
RTVSPropertyOp24
 70
     1
102
RTVSPropertyOp25
 70
     1
102
RTVSPropertyOp26
 70
     1
102
RTVSPropertyOp27
 70
     1
102
RTVSPropertyOp28
 70
     1
102
RTVSPropertyOp29
 70
     1
102
RTVSPropertyOp30
 70
     1
102
RTVSPropertyOp31
 70
     1
102
RTVSPropertyOp32
 70
     1
102
RTVSPropertyOp33
 70
     1
102
RTVSPropertyOp34
 70
     1
102
RTVSPropertyOp35
 70
     1
102
RTVSPropertyOp36
 70
     1
102
RTVSPropertyOp37
 70
     1
102
RTVSPropertyOp38
 70
     1
102
RTVSPropertyOp39
 70
     1
102
RTVSPropertyOp40
 70
     1
102
RTVSPropertyOp41
 70
     1
102
RTVSPropertyOp42
 70
     1
102
RTVSPropertyOp43
 70
     1
102
RTVSPropertyOp44
 70
     1
102
RTVSPropertyOp45
 70
     1
102
RTVSPropertyOp46
 70
     1
102
RTVSPropertyOp47
 70
     1
102
RTVSPropertyOp48
 70
     1
102
RTVSPropertyOp49
 70
     1
102
RTVSPropertyOp50
 70
     1
102
RTVSPropertyOp51
 70
     0
102
RTVSPropertyOp52
 70
     0
102
RTVSPropertyOp53
 70
     1
102
RTVSPropertyOp54
 70
     1
102
RTVSPropertyOp55
 70
     1
102
RTVSPropertyOp56
 70
     1
102
RTVSPropertyOp57
 70
     1
102
RTVSPropertyOp58
 70
     1
102
RTVSPropertyOp59
 70
     1
102
RTVSPropertyOp60
 70
     1
102
RTVSPropertyOp61
 70
     1
102
RTVSPropertyOp62
 70
     1
  0
XRECORD
  5
11D7F
102
{ACAD_REACTORS
330
11D7E
102
}
330
11D7E
100
AcDbXrecord
280
     1
102
RTVSPost2010Prop28
280
     0
102
RTVSPost2010PropOp28
 70
     1
102
RTVSPost2010Prop29
280
     1
102
RTVSPost2010PropOp29
 70
     1
102
RTVSPost2010Prop30
280
     1
102
RTVSPost2010PropOp30
 70
     1
102
RTVSPost2010Prop31
280
     0
102
RTVSPost2010PropOp31
 70
     1
102
RTVSPost2010Prop32
280
     0
102
RTVSPost2010PropOp32
 70
     1
102
RTVSPost2010Prop33
280
     0
102
RTVSPost2010PropOp33
 70
     1
102
RTVSPost2010Prop34
280
     0
102
RTVSPost2010PropOp34
 70
     1
102
RTVSPost2010Prop35
280
     0
102
RTVSPost2010PropOp35
 70
     1
102
RTVSPost2010Prop36
280
     0
102
RTVSPost2010PropOp36
 70
     1
102
RTVSPost2010Prop37
 90
       50
102
RTVSPost2010PropOp37
 70
     1
102
RTVSPost2010Prop38
140
0.0
102
RTVSPost2010PropOp38
 70
     1
102
RTVSPost2010Prop39
140
1.0
102
RTVSPost2010PropOp39
 70
     1
102
RTVSPost2010Prop40
 90
        0
102
RTVSPost2010PropOp40
 70
     1
102
RTVSPost2010Prop41ColorIndex
 90
       18
102
RTVSPost2010Prop41ColorRGB
 90
        0
102
RTVSPost2010PropOp41
 70
     1
102
RTVSPost2010Prop42
 90
       50
102
RTVSPost2010PropOp42
 70
     1
102
RTVSPost2010Prop43
 90
        3
102
RTVSPost2010PropOp43
 70
     1
102
RTVSPost2010Prop44ColorIndex
 90
        5
102
RTVSPost2010Prop44ColorRGB
 90
      255
102
RTVSPost2010PropOp44
 70
     1
102
RTVSPost2010Prop45
280
     0
102
RTVSPost2010PropOp45
 70
     1
102
RTVSPost2010Prop46
 90
       50
102
RTVSPost2010PropOp46
 70
     1
102
RTVSPost2010Prop47
 90
       50
102
RTVSPost2010PropOp47
 70
     1
102
RTVSPost2010Prop48
 90
       50
102
RTVSPost2010PropOp48
 70
     1
102
RTVSPost2010Prop49
280
     0
102
RTVSPost2010PropOp49
 70
     1
102
RTVSPost2010Prop50
 90
       50
102
RTVSPost2010PropOp50
 70
     1
102
RTVSPost2010Prop51ColorIndex
 90
      256
102
RTVSPost2010Prop51ColorRGB
 90
-16777216
102
RTVSPost2010PropOp51
 70
     0
102
RTVSPost2010Prop52
140
1.0
102
RTVSPost2010PropOp52
 70
     0
102
RTVSPost2010Prop53
 90
        2
102
RTVSPost2010PropOp53
 70
     1
102
RTVSPost2010Prop54
  1
strokes_ogs.tif
102
RTVSPost2010PropOp54
 70
     1
102
RTVSPost2010Prop55
280
     0
102
RTVSPost2010PropOp55
 70
     1
102
RTVSPost2010Prop56
140
1.0
102
RTVSPost2010PropOp56
 70
     1
102
RTVSPost2010Prop57
140
1.0
102
RTVSPost2010PropOp57
 70
     1
102
RTVSPropertyOp0
 70
     1
102
RTVSPropertyOp1
 70
     1
102
RTVSPropertyOp2
 70
     1
102
RTVSPropertyOp3
 70
     1
102
RTVSPropertyOp4
 70
     1
102
RTVSPropertyOp5
 70
     1
102
RTVSPropertyOp6
 70
     1
102
RTVSPropertyOp7
 70
     1
102
RTVSPropertyOp8
 70
     1
102
RTVSPropertyOp9
 70
     1
102
RTVSPropertyOp10
 70
     1
102
RTVSPropertyOp11
 70
     1
102
RTVSPropertyOp12
 70
     1
102
RTVSPropertyOp13
 70
     1
102
RTVSPropertyOp14
 70
     1
102
RTVSPropertyOp15
 70
     1
102
RTVSPropertyOp16
 70
     1
102
RTVSPropertyOp17
 70
     1
102
RTVSPropertyOp18
 70
     1
102
RTVSPropertyOp19
 70
     1
102
RTVSPropertyOp20
 70
     1
102
RTVSPropertyOp21
 70
     1
102
RTVSPropertyOp22
 70
     1
102
RTVSPropertyOp23
 70
     1
102
RTVSPropertyOp24
 70
     1
102
RTVSPropertyOp25
 70
     1
102
RTVSPropertyOp26
 70
     1
102
RTVSPropertyOp27
 70
     1
102
RTVSPropertyOp28
 70
     1
102
RTVSPropertyOp29
 70
     1
102
RTVSPropertyOp30
 70
     1
102
RTVSPropertyOp31
 70
     1
102
RTVSPropertyOp32
 70
     1
102
RTVSPropertyOp33
 70
     1
102
RTVSPropertyOp34
 70
     1
102
RTVSPropertyOp35
 70
     1
102
RTVSPropertyOp36
 70
     1
102
RTVSPropertyOp37
 70
     1
102
RTVSPropertyOp38
 70
     1
102
RTVSPropertyOp39
 70
     1
102
RTVSPropertyOp40
 70
     1
102
RTVSPropertyOp41
 70
     1
102
RTVSPropertyOp42
 70
     1
102
RTVSPropertyOp43
 70
     1
102
RTVSPropertyOp44
 70
     1
102
RTVSPropertyOp45
 70
     1
102
RTVSPropertyOp46
 70
     1
102
RTVSPropertyOp47
 70
     1
102
RTVSPropertyOp48
 70
     1
102
RTVSPropertyOp49
 70
     1
102
RTVSPropertyOp50
 70
     1
102
RTVSPropertyOp51
 70
     0
102
RTVSPropertyOp52
 70
     0
102
RTVSPropertyOp53
 70
     1
102
RTVSPropertyOp54
 70
     1
102
RTVSPropertyOp55
 70
     1
102
RTVSPropertyOp56
 70
     1
102
RTVSPropertyOp57
 70
     1
102
RTVSPropertyOp58
 70
     1
102
RTVSPropertyOp59
 70
     1
102
RTVSPropertyOp60
 70
     1
102
RTVSPropertyOp61
 70
     1
102
RTVSPropertyOp62
 70
     1
  0
XRECORD
  5
11D8D
102
{ACAD_REACTORS
330
11D8C
102
}
330
11D8C
100
AcDbXrecord
280
     1
102
RTVSPost2010Prop28
280
     0
102
RTVSPost2010PropOp28
 70
     1
102
RTVSPost2010Prop29
280
     1
102
RTVSPost2010PropOp29
 70
     1
102
RTVSPost2010Prop30
280
     1
102
RTVSPost2010PropOp30
 70
     1
102
RTVSPost2010Prop31
280
     0
102
RTVSPost2010PropOp31
 70
     1
102
RTVSPost2010Prop32
280
     0
102
RTVSPost2010PropOp32
 70
     1
102
RTVSPost2010Prop33
280
     0
102
RTVSPost2010PropOp33
 70
     1
102
RTVSPost2010Prop34
280
     0
102
RTVSPost2010PropOp34
 70
     1
102
RTVSPost2010Prop35
280
     0
102
RTVSPost2010PropOp35
 70
     1
102
RTVSPost2010Prop36
280
     0
102
RTVSPost2010PropOp36
 70
     1
102
RTVSPost2010Prop37
 90
       50
102
RTVSPost2010PropOp37
 70
     1
102
RTVSPost2010Prop38
140
0.0
102
RTVSPost2010PropOp38
 70
     1
102
RTVSPost2010Prop39
140
1.0
102
RTVSPost2010PropOp39
 70
     1
102
RTVSPost2010Prop40
 90
        0
102
RTVSPost2010PropOp40
 70
     1
102
RTVSPost2010Prop41ColorIndex
 90
       18
102
RTVSPost2010Prop41ColorRGB
 90
        0
102
RTVSPost2010PropOp41
 70
     1
102
RTVSPost2010Prop42
 90
       50
102
RTVSPost2010PropOp42
 70
     1
102
RTVSPost2010Prop43
 90
        3
102
RTVSPost2010PropOp43
 70
     1
102
RTVSPost2010Prop44ColorIndex
 90
        5
102
RTVSPost2010Prop44ColorRGB
 90
      255
102
RTVSPost2010PropOp44
 70
     1
102
RTVSPost2010Prop45
280
     0
102
RTVSPost2010PropOp45
 70
     1
102
RTVSPost2010Prop46
 90
       50
102
RTVSPost2010PropOp46
 70
     1
102
RTVSPost2010Prop47
 90
       50
102
RTVSPost2010PropOp47
 70
     1
102
RTVSPost2010Prop48
 90
       50
102
RTVSPost2010PropOp48
 70
     1
102
RTVSPost2010Prop49
280
     0
102
RTVSPost2010PropOp49
 70
     1
102
RTVSPost2010Prop50
 90
       50
102
RTVSPost2010PropOp50
 70
     1
102
RTVSPost2010Prop51ColorIndex
 90
      256
102
RTVSPost2010Prop51ColorRGB
 90
-16777216
102
RTVSPost2010PropOp51
 70
     0
102
RTVSPost2010Prop52
140
1.0
102
RTVSPost2010PropOp52
 70
     0
102
RTVSPost2010Prop53
 90
        2
102
RTVSPost2010PropOp53
 70
     1
102
RTVSPost2010Prop54
  1
strokes_ogs.tif
102
RTVSPost2010PropOp54
 70
     1
102
RTVSPost2010Prop55
280
     0
102
RTVSPost2010PropOp55
 70
     1
102
RTVSPost2010Prop56
140
1.0
102
RTVSPost2010PropOp56
 70
     1
102
RTVSPost2010Prop57
140
1.0
102
RTVSPost2010PropOp57
 70
     1
102
RTVSPropertyOp0
 70
     1
102
RTVSPropertyOp1
 70
     1
102
RTVSPropertyOp2
 70
     1
102
RTVSPropertyOp3
 70
     1
102
RTVSPropertyOp4
 70
     1
102
RTVSPropertyOp5
 70
     1
102
RTVSPropertyOp6
 70
     1
102
RTVSPropertyOp7
 70
     1
102
RTVSPropertyOp8
 70
     1
102
RTVSPropertyOp9
 70
     1
102
RTVSPropertyOp10
 70
     1
102
RTVSPropertyOp11
 70
     1
102
RTVSPropertyOp12
 70
     1
102
RTVSPropertyOp13
 70
     1
102
RTVSPropertyOp14
 70
     1
102
RTVSPropertyOp15
 70
     1
102
RTVSPropertyOp16
 70
     1
102
RTVSPropertyOp17
 70
     1
102
RTVSPropertyOp18
 70
     1
102
RTVSPropertyOp19
 70
     1
102
RTVSPropertyOp20
 70
     1
102
RTVSPropertyOp21
 70
     1
102
RTVSPropertyOp22
 70
     1
102
RTVSPropertyOp23
 70
     1
102
RTVSPropertyOp24
 70
     1
102
RTVSPropertyOp25
 70
     1
102
RTVSPropertyOp26
 70
     1
102
RTVSPropertyOp27
 70
     1
102
RTVSPropertyOp28
 70
     1
102
RTVSPropertyOp29
 70
     1
102
RTVSPropertyOp30
 70
     1
102
RTVSPropertyOp31
 70
     1
102
RTVSPropertyOp32
 70
     1
102
RTVSPropertyOp33
 70
     1
102
RTVSPropertyOp34
 70
     1
102
RTVSPropertyOp35
 70
     1
102
RTVSPropertyOp36
 70
     1
102
RTVSPropertyOp37
 70
     1
102
RTVSPropertyOp38
 70
     1
102
RTVSPropertyOp39
 70
     1
102
RTVSPropertyOp40
 70
     1
102
RTVSPropertyOp41
 70
     1
102
RTVSPropertyOp42
 70
     1
102
RTVSPropertyOp43
 70
     1
102
RTVSPropertyOp44
 70
     1
102
RTVSPropertyOp45
 70
     1
102
RTVSPropertyOp46
 70
     1
102
RTVSPropertyOp47
 70
     1
102
RTVSPropertyOp48
 70
     1
102
RTVSPropertyOp49
 70
     1
102
RTVSPropertyOp50
 70
     1
102
RTVSPropertyOp51
 70
     0
102
RTVSPropertyOp52
 70
     0
102
RTVSPropertyOp53
 70
     1
102
RTVSPropertyOp54
 70
     1
102
RTVSPropertyOp55
 70
     1
102
RTVSPropertyOp56
 70
     1
102
RTVSPropertyOp57
 70
     1
102
RTVSPropertyOp58
 70
     1
102
RTVSPropertyOp59
 70
     1
102
RTVSPropertyOp60
 70
     1
102
RTVSPropertyOp61
 70
     1
102
RTVSPropertyOp62
 70
     1
  0
XRECORD
  5
11D95
102
{ACAD_REACTORS
330
11D94
102
}
330
11D94
100
AcDbXrecord
280
     1
102
RTVSPost2010Prop28
280
     0
102
RTVSPost2010PropOp28
 70
     1
102
RTVSPost2010Prop29
280
     1
102
RTVSPost2010PropOp29
 70
     1
102
RTVSPost2010Prop30
280
     1
102
RTVSPost2010PropOp30
 70
     1
102
RTVSPost2010Prop31
280
     0
102
RTVSPost2010PropOp31
 70
     1
102
RTVSPost2010Prop32
280
     0
102
RTVSPost2010PropOp32
 70
     1
102
RTVSPost2010Prop33
280
     0
102
RTVSPost2010PropOp33
 70
     1
102
RTVSPost2010Prop34
280
     0
102
RTVSPost2010PropOp34
 70
     1
102
RTVSPost2010Prop35
280
     0
102
RTVSPost2010PropOp35
 70
     1
102
RTVSPost2010Prop36
280
     0
102
RTVSPost2010PropOp36
 70
     1
102
RTVSPost2010Prop37
 90
       50
102
RTVSPost2010PropOp37
 70
     1
102
RTVSPost2010Prop38
140
0.0
102
RTVSPost2010PropOp38
 70
     1
102
RTVSPost2010Prop39
140
1.0
102
RTVSPost2010PropOp39
 70
     1
102
RTVSPost2010Prop40
 90
        0
102
RTVSPost2010PropOp40
 70
     1
102
RTVSPost2010Prop41ColorIndex
 90
       18
102
RTVSPost2010Prop41ColorRGB
 90
        0
102
RTVSPost2010PropOp41
 70
     1
102
RTVSPost2010Prop42
 90
       50
102
RTVSPost2010PropOp42
 70
     1
102
RTVSPost2010Prop43
 90
        3
102
RTVSPost2010PropOp43
 70
     1
102
RTVSPost2010Prop44ColorIndex
 90
        5
102
RTVSPost2010Prop44ColorRGB
 90
      255
102
RTVSPost2010PropOp44
 70
     1
102
RTVSPost2010Prop45
280
     0
102
RTVSPost2010PropOp45
 70
     1
102
RTVSPost2010Prop46
 90
       50
102
RTVSPost2010PropOp46
 70
     1
102
RTVSPost2010Prop47
 90
       50
102
RTVSPost2010PropOp47
 70
     1
102
RTVSPost2010Prop48
 90
       50
102
RTVSPost2010PropOp48
 70
     1
102
RTVSPost2010Prop49
280
     0
102
RTVSPost2010PropOp49
 70
     1
102
RTVSPost2010Prop50
 90
       50
102
RTVSPost2010PropOp50
 70
     1
102
RTVSPost2010Prop51ColorIndex
 90
      256
102
RTVSPost2010Prop51ColorRGB
 90
-16777216
102
RTVSPost2010PropOp51
 70
     0
102
RTVSPost2010Prop52
140
1.0
102
RTVSPost2010PropOp52
 70
     0
102
RTVSPost2010Prop53
 90
        2
102
RTVSPost2010PropOp53
 70
     1
102
RTVSPost2010Prop54
  1
strokes_ogs.tif
102
RTVSPost2010PropOp54
 70
     1
102
RTVSPost2010Prop55
280
     0
102
RTVSPost2010PropOp55
 70
     1
102
RTVSPost2010Prop56
140
1.0
102
RTVSPost2010PropOp56
 70
     1
102
RTVSPost2010Prop57
140
1.0
102
RTVSPost2010PropOp57
 70
     1
102
RTVSPropertyOp0
 70
     1
102
RTVSPropertyOp1
 70
     1
102
RTVSPropertyOp2
 70
     1
102
RTVSPropertyOp3
 70
     1
102
RTVSPropertyOp4
 70
     1
102
RTVSPropertyOp5
 70
     1
102
RTVSPropertyOp6
 70
     1
102
RTVSPropertyOp7
 70
     1
102
RTVSPropertyOp8
 70
     1
102
RTVSPropertyOp9
 70
     1
102
RTVSPropertyOp10
 70
     1
102
RTVSPropertyOp11
 70
     1
102
RTVSPropertyOp12
 70
     1
102
RTVSPropertyOp13
 70
     1
102
RTVSPropertyOp14
 70
     1
102
RTVSPropertyOp15
 70
     1
102
RTVSPropertyOp16
 70
     1
102
RTVSPropertyOp17
 70
     1
102
RTVSPropertyOp18
 70
     1
102
RTVSPropertyOp19
 70
     1
102
RTVSPropertyOp20
 70
     1
102
RTVSPropertyOp21
 70
     1
102
RTVSPropertyOp22
 70
     1
102
RTVSPropertyOp23
 70
     1
102
RTVSPropertyOp24
 70
     1
102
RTVSPropertyOp25
 70
     1
102
RTVSPropertyOp26
 70
     1
102
RTVSPropertyOp27
 70
     1
102
RTVSPropertyOp28
 70
     1
102
RTVSPropertyOp29
 70
     1
102
RTVSPropertyOp30
 70
     1
102
RTVSPropertyOp31
 70
     1
102
RTVSPropertyOp32
 70
     1
102
RTVSPropertyOp33
 70
     1
102
RTVSPropertyOp34
 70
     1
102
RTVSPropertyOp35
 70
     1
102
RTVSPropertyOp36
 70
     1
102
RTVSPropertyOp37
 70
     1
102
RTVSPropertyOp38
 70
     1
102
RTVSPropertyOp39
 70
     1
102
RTVSPropertyOp40
 70
     1
102
RTVSPropertyOp41
 70
     1
102
RTVSPropertyOp42
 70
     1
102
RTVSPropertyOp43
 70
     1
102
RTVSPropertyOp44
 70
     1
102
RTVSPropertyOp45
 70
     1
102
RTVSPropertyOp46
 70
     1
102
RTVSPropertyOp47
 70
     1
102
RTVSPropertyOp48
 70
     1
102
RTVSPropertyOp49
 70
     1
102
RTVSPropertyOp50
 70
     1
102
RTVSPropertyOp51
 70
     0
102
RTVSPropertyOp52
 70
     0
102
RTVSPropertyOp53
 70
     1
102
RTVSPropertyOp54
 70
     1
102
RTVSPropertyOp55
 70
     1
102
RTVSPropertyOp56
 70
     1
102
RTVSPropertyOp57
 70
     1
102
RTVSPropertyOp58
 70
     1
102
RTVSPropertyOp59
 70
     1
102
RTVSPropertyOp60
 70
     1
102
RTVSPropertyOp61
 70
     1
102
RTVSPropertyOp62
 70
     1
  0
XRECORD
  5
11D87
102
{ACAD_REACTORS
330
11D86
102
}
330
11D86
100
AcDbXrecord
280
     1
102
RTVSPost2010Prop28
280
     0
102
RTVSPost2010PropOp28
 70
     1
102
RTVSPost2010Prop29
280
     1
102
RTVSPost2010PropOp29
 70
     1
102
RTVSPost2010Prop30
280
     1
102
RTVSPost2010PropOp30
 70
     1
102
RTVSPost2010Prop31
280
     0
102
RTVSPost2010PropOp31
 70
     1
102
RTVSPost2010Prop32
280
     0
102
RTVSPost2010PropOp32
 70
     1
102
RTVSPost2010Prop33
280
     0
102
RTVSPost2010PropOp33
 70
     1
102
RTVSPost2010Prop34
280
     0
102
RTVSPost2010PropOp34
 70
     1
102
RTVSPost2010Prop35
280
     0
102
RTVSPost2010PropOp35
 70
     1
102
RTVSPost2010Prop36
280
     0
102
RTVSPost2010PropOp36
 70
     1
102
RTVSPost2010Prop37
 90
       50
102
RTVSPost2010PropOp37
 70
     1
102
RTVSPost2010Prop38
140
0.0
102
RTVSPost2010PropOp38
 70
     1
102
RTVSPost2010Prop39
140
1.0
102
RTVSPost2010PropOp39
 70
     1
102
RTVSPost2010Prop40
 90
        0
102
RTVSPost2010PropOp40
 70
     1
102
RTVSPost2010Prop41ColorIndex
 90
       18
102
RTVSPost2010Prop41ColorRGB
 90
        0
102
RTVSPost2010PropOp41
 70
     1
102
RTVSPost2010Prop42
 90
       50
102
RTVSPost2010PropOp42
 70
     1
102
RTVSPost2010Prop43
 90
        3
102
RTVSPost2010PropOp43
 70
     1
102
RTVSPost2010Prop44ColorIndex
 90
        5
102
RTVSPost2010Prop44ColorRGB
 90
      255
102
RTVSPost2010PropOp44
 70
     1
102
RTVSPost2010Prop45
280
     0
102
RTVSPost2010PropOp45
 70
     1
102
RTVSPost2010Prop46
 90
       50
102
RTVSPost2010PropOp46
 70
     1
102
RTVSPost2010Prop47
 90
       50
102
RTVSPost2010PropOp47
 70
     1
102
RTVSPost2010Prop48
 90
       50
102
RTVSPost2010PropOp48
 70
     1
102
RTVSPost2010Prop49
280
     0
102
RTVSPost2010PropOp49
 70
     1
102
RTVSPost2010Prop50
 90
       50
102
RTVSPost2010PropOp50
 70
     1
102
RTVSPost2010Prop51ColorIndex
 90
      256
102
RTVSPost2010Prop51ColorRGB
 90
-16777216
102
RTVSPost2010PropOp51
 70
     0
102
RTVSPost2010Prop52
140
1.0
102
RTVSPost2010PropOp52
 70
     0
102
RTVSPost2010Prop53
 90
        2
102
RTVSPost2010PropOp53
 70
     1
102
RTVSPost2010Prop54
  1
strokes_ogs.tif
102
RTVSPost2010PropOp54
 70
     1
102
RTVSPost2010Prop55
280
     0
102
RTVSPost2010PropOp55
 70
     1
102
RTVSPost2010Prop56
140
1.0
102
RTVSPost2010PropOp56
 70
     1
102
RTVSPost2010Prop57
140
1.0
102
RTVSPost2010PropOp57
 70
     1
102
RTVSPropertyOp0
 70
     1
102
RTVSPropertyOp1
 70
     1
102
RTVSPropertyOp2
 70
     1
102
RTVSPropertyOp3
 70
     1
102
RTVSPropertyOp4
 70
     1
102
RTVSPropertyOp5
 70
     1
102
RTVSPropertyOp6
 70
     1
102
RTVSPropertyOp7
 70
     1
102
RTVSPropertyOp8
 70
     1
102
RTVSPropertyOp9
 70
     1
102
RTVSPropertyOp10
 70
     1
102
RTVSPropertyOp11
 70
     1
102
RTVSPropertyOp12
 70
     1
102
RTVSPropertyOp13
 70
     1
102
RTVSPropertyOp14
 70
     1
102
RTVSPropertyOp15
 70
     1
102
RTVSPropertyOp16
 70
     1
102
RTVSPropertyOp17
 70
     1
102
RTVSPropertyOp18
 70
     1
102
RTVSPropertyOp19
 70
     1
102
RTVSPropertyOp20
 70
     1
102
RTVSPropertyOp21
 70
     1
102
RTVSPropertyOp22
 70
     1
102
RTVSPropertyOp23
 70
     1
102
RTVSPropertyOp24
 70
     1
102
RTVSPropertyOp25
 70
     1
102
RTVSPropertyOp26
 70
     1
102
RTVSPropertyOp27
 70
     1
102
RTVSPropertyOp28
 70
     1
102
RTVSPropertyOp29
 70
     1
102
RTVSPropertyOp30
 70
     1
102
RTVSPropertyOp31
 70
     1
102
RTVSPropertyOp32
 70
     1
102
RTVSPropertyOp33
 70
     1
102
RTVSPropertyOp34
 70
     1
102
RTVSPropertyOp35
 70
     1
102
RTVSPropertyOp36
 70
     1
102
RTVSPropertyOp37
 70
     1
102
RTVSPropertyOp38
 70
     1
102
RTVSPropertyOp39
 70
     1
102
RTVSPropertyOp40
 70
     1
102
RTVSPropertyOp41
 70
     1
102
RTVSPropertyOp42
 70
     1
102
RTVSPropertyOp43
 70
     1
102
RTVSPropertyOp44
 70
     1
102
RTVSPropertyOp45
 70
     1
102
RTVSPropertyOp46
 70
     1
102
RTVSPropertyOp47
 70
     1
102
RTVSPropertyOp48
 70
     1
102
RTVSPropertyOp49
 70
     1
102
RTVSPropertyOp50
 70
     1
102
RTVSPropertyOp51
 70
     0
102
RTVSPropertyOp52
 70
     0
102
RTVSPropertyOp53
 70
     1
102
RTVSPropertyOp54
 70
     1
102
RTVSPropertyOp55
 70
     1
102
RTVSPropertyOp56
 70
     1
102
RTVSPropertyOp57
 70
     1
102
RTVSPropertyOp58
 70
     1
102
RTVSPropertyOp59
 70
     1
102
RTVSPropertyOp60
 70
     1
102
RTVSPropertyOp61
 70
     1
102
RTVSPropertyOp62
 70
     1
  0
XRECORD
  5
11D8B
102
{ACAD_REACTORS
330
11D8A
102
}
330
11D8A
100
AcDbXrecord
280
     1
102
RTVSPost2010Prop28
280
     0
102
RTVSPost2010PropOp28
 70
     1
102
RTVSPost2010Prop29
280
     1
102
RTVSPost2010PropOp29
 70
     1
102
RTVSPost2010Prop30
280
     1
102
RTVSPost2010PropOp30
 70
     1
102
RTVSPost2010Prop31
280
     0
102
RTVSPost2010PropOp31
 70
     1
102
RTVSPost2010Prop32
280
     0
102
RTVSPost2010PropOp32
 70
     1
102
RTVSPost2010Prop33
280
     0
102
RTVSPost2010PropOp33
 70
     1
102
RTVSPost2010Prop34
280
     0
102
RTVSPost2010PropOp34
 70
     1
102
RTVSPost2010Prop35
280
     0
102
RTVSPost2010PropOp35
 70
     1
102
RTVSPost2010Prop36
280
     0
102
RTVSPost2010PropOp36
 70
     1
102
RTVSPost2010Prop37
 90
       50
102
RTVSPost2010PropOp37
 70
     1
102
RTVSPost2010Prop38
140
0.0
102
RTVSPost2010PropOp38
 70
     1
102
RTVSPost2010Prop39
140
1.0
102
RTVSPost2010PropOp39
 70
     1
102
RTVSPost2010Prop40
 90
        0
102
RTVSPost2010PropOp40
 70
     1
102
RTVSPost2010Prop41ColorIndex
 90
       18
102
RTVSPost2010Prop41ColorRGB
 90
        0
102
RTVSPost2010PropOp41
 70
     1
102
RTVSPost2010Prop42
 90
       50
102
RTVSPost2010PropOp42
 70
     1
102
RTVSPost2010Prop43
 90
        3
102
RTVSPost2010PropOp43
 70
     1
102
RTVSPost2010Prop44ColorIndex
 90
        5
102
RTVSPost2010Prop44ColorRGB
 90
      255
102
RTVSPost2010PropOp44
 70
     1
102
RTVSPost2010Prop45
280
     0
102
RTVSPost2010PropOp45
 70
     1
102
RTVSPost2010Prop46
 90
       50
102
RTVSPost2010PropOp46
 70
     1
102
RTVSPost2010Prop47
 90
       50
102
RTVSPost2010PropOp47
 70
     1
102
RTVSPost2010Prop48
 90
       50
102
RTVSPost2010PropOp48
 70
     1
102
RTVSPost2010Prop49
280
     0
102
RTVSPost2010PropOp49
 70
     1
102
RTVSPost2010Prop50
 90
       50
102
RTVSPost2010PropOp50
 70
     1
102
RTVSPost2010Prop51ColorIndex
 90
      256
102
RTVSPost2010Prop51ColorRGB
 90
-16777216
102
RTVSPost2010PropOp51
 70
     0
102
RTVSPost2010Prop52
140
1.0
102
RTVSPost2010PropOp52
 70
     0
102
RTVSPost2010Prop53
 90
        2
102
RTVSPost2010PropOp53
 70
     1
102
RTVSPost2010Prop54
  1
strokes_ogs.tif
102
RTVSPost2010PropOp54
 70
     1
102
RTVSPost2010Prop55
280
     0
102
RTVSPost2010PropOp55
 70
     1
102
RTVSPost2010Prop56
140
1.0
102
RTVSPost2010PropOp56
 70
     1
102
RTVSPost2010Prop57
140
1.0
102
RTVSPost2010PropOp57
 70
     1
102
RTVSPropertyOp0
 70
     1
102
RTVSPropertyOp1
 70
     1
102
RTVSPropertyOp2
 70
     1
102
RTVSPropertyOp3
 70
     1
102
RTVSPropertyOp4
 70
     1
102
RTVSPropertyOp5
 70
     1
102
RTVSPropertyOp6
 70
     1
102
RTVSPropertyOp7
 70
     1
102
RTVSPropertyOp8
 70
     1
102
RTVSPropertyOp9
 70
     1
102
RTVSPropertyOp10
 70
     1
102
RTVSPropertyOp11
 70
     1
102
RTVSPropertyOp12
 70
     1
102
RTVSPropertyOp13
 70
     1
102
RTVSPropertyOp14
 70
     1
102
RTVSPropertyOp15
 70
     1
102
RTVSPropertyOp16
 70
     1
102
RTVSPropertyOp17
 70
     1
102
RTVSPropertyOp18
 70
     1
102
RTVSPropertyOp19
 70
     1
102
RTVSPropertyOp20
 70
     1
102
RTVSPropertyOp21
 70
     1
102
RTVSPropertyOp22
 70
     1
102
RTVSPropertyOp23
 70
     1
102
RTVSPropertyOp24
 70
     1
102
RTVSPropertyOp25
 70
     1
102
RTVSPropertyOp26
 70
     1
102
RTVSPropertyOp27
 70
     1
102
RTVSPropertyOp28
 70
     1
102
RTVSPropertyOp29
 70
     1
102
RTVSPropertyOp30
 70
     1
102
RTVSPropertyOp31
 70
     1
102
RTVSPropertyOp32
 70
     1
102
RTVSPropertyOp33
 70
     1
102
RTVSPropertyOp34
 70
     1
102
RTVSPropertyOp35
 70
     1
102
RTVSPropertyOp36
 70
     1
102
RTVSPropertyOp37
 70
     1
102
RTVSPropertyOp38
 70
     1
102
RTVSPropertyOp39
 70
     1
102
RTVSPropertyOp40
 70
     1
102
RTVSPropertyOp41
 70
     1
102
RTVSPropertyOp42
 70
     1
102
RTVSPropertyOp43
 70
     1
102
RTVSPropertyOp44
 70
     1
102
RTVSPropertyOp45
 70
     1
102
RTVSPropertyOp46
 70
     1
102
RTVSPropertyOp47
 70
     1
102
RTVSPropertyOp48
 70
     1
102
RTVSPropertyOp49
 70
     1
102
RTVSPropertyOp50
 70
     1
102
RTVSPropertyOp51
 70
     0
102
RTVSPropertyOp52
 70
     0
102
RTVSPropertyOp53
 70
     1
102
RTVSPropertyOp54
 70
     1
102
RTVSPropertyOp55
 70
     1
102
RTVSPropertyOp56
 70
     1
102
RTVSPropertyOp57
 70
     1
102
RTVSPropertyOp58
 70
     1
102
RTVSPropertyOp59
 70
     1
102
RTVSPropertyOp60
 70
     1
102
RTVSPropertyOp61
 70
     1
102
RTVSPropertyOp62
 70
     1
  0
XRECORD
  5
11DA5
102
{ACAD_REACTORS
330
11DA4
102
}
330
11DA4
100
AcDbXrecord
280
     1
102
RTVSPost2010Prop28
280
     0
102
RTVSPost2010PropOp28
 70
     0
102
RTVSPost2010Prop29
280
     1
102
RTVSPost2010PropOp29
 70
     0
102
RTVSPost2010Prop30
280
     1
102
RTVSPost2010PropOp30
 70
     0
102
RTVSPost2010Prop31
280
     0
102
RTVSPost2010PropOp31
 70
     0
102
RTVSPost2010Prop32
280
     0
102
RTVSPost2010PropOp32
 70
     0
102
RTVSPost2010Prop33
280
     0
102
RTVSPost2010PropOp33
 70
     0
102
RTVSPost2010Prop34
280
     0
102
RTVSPost2010PropOp34
 70
     0
102
RTVSPost2010Prop35
280
     0
102
RTVSPost2010PropOp35
 70
     0
102
RTVSPost2010Prop36
280
     0
102
RTVSPost2010PropOp36
 70
     0
102
RTVSPost2010Prop37
 90
       50
102
RTVSPost2010PropOp37
 70
     0
102
RTVSPost2010Prop38
140
0.0
102
RTVSPost2010PropOp38
 70
     0
102
RTVSPost2010Prop39
140
1.0
102
RTVSPost2010PropOp39
 70
     0
102
RTVSPost2010Prop40
 90
        0
102
RTVSPost2010PropOp40
 70
     0
102
RTVSPost2010Prop41ColorIndex
 90
       18
102
RTVSPost2010Prop41ColorRGB
 90
        0
102
RTVSPost2010PropOp41
 70
     0
102
RTVSPost2010Prop42
 90
       50
102
RTVSPost2010PropOp42
 70
     0
102
RTVSPost2010Prop43
 90
        3
102
RTVSPost2010PropOp43
 70
     0
102
RTVSPost2010Prop44ColorIndex
 90
        5
102
RTVSPost2010Prop44ColorRGB
 90
      255
102
RTVSPost2010PropOp44
 70
     0
102
RTVSPost2010Prop45
280
     0
102
RTVSPost2010PropOp45
 70
     0
102
RTVSPost2010Prop46
 90
       50
102
RTVSPost2010PropOp46
 70
     0
102
RTVSPost2010Prop47
 90
       50
102
RTVSPost2010PropOp47
 70
     0
102
RTVSPost2010Prop48
 90
       50
102
RTVSPost2010PropOp48
 70
     0
102
RTVSPost2010Prop49
280
     0
102
RTVSPost2010PropOp49
 70
     0
102
RTVSPost2010Prop50
 90
       50
102
RTVSPost2010PropOp50
 70
     0
102
RTVSPost2010Prop51ColorIndex
 90
      256
102
RTVSPost2010Prop51ColorRGB
 90
-16777216
102
RTVSPost2010PropOp51
 70
     0
102
RTVSPost2010Prop52
140
1.0
102
RTVSPost2010PropOp52
 70
     0
102
RTVSPost2010Prop53
 90
        2
102
RTVSPost2010PropOp53
 70
     0
102
RTVSPost2010Prop54
  1
strokes_ogs.tif
102
RTVSPost2010PropOp54
 70
     0
102
RTVSPost2010Prop55
280
     0
102
RTVSPost2010PropOp55
 70
     0
102
RTVSPost2010Prop56
140
1.0
102
RTVSPost2010PropOp56
 70
     0
102
RTVSPost2010Prop57
140
1.0
102
RTVSPost2010PropOp57
 70
     0
102
RTVSPropertyOp0
 70
     0
102
RTVSPropertyOp1
 70
     0
102
RTVSPropertyOp2
 70
     0
102
RTVSPropertyOp3
 70
     0
102
RTVSPropertyOp4
 70
     0
102
RTVSPropertyOp5
 70
     0
102
RTVSPropertyOp6
 70
     0
102
RTVSPropertyOp7
 70
     0
102
RTVSPropertyOp8
 70
     0
102
RTVSPropertyOp9
 70
     0
102
RTVSPropertyOp10
 70
     0
102
RTVSPropertyOp11
 70
     0
102
RTVSPropertyOp12
 70
     0
102
RTVSPropertyOp13
 70
     0
102
RTVSPropertyOp14
 70
     2
102
RTVSPropertyOp15
 70
     0
102
RTVSPropertyOp16
 70
     0
102
RTVSPropertyOp17
 70
     0
102
RTVSPropertyOp18
 70
     0
102
RTVSPropertyOp19
 70
     0
102
RTVSPropertyOp20
 70
     0
102
RTVSPropertyOp21
 70
     0
102
RTVSPropertyOp22
 70
     0
102
RTVSPropertyOp23
 70
     0
102
RTVSPropertyOp24
 70
     0
102
RTVSPropertyOp25
 70
     0
102
RTVSPropertyOp26
 70
     0
102
RTVSPropertyOp27
 70
     0
102
RTVSPropertyOp28
 70
     0
102
RTVSPropertyOp29
 70
     0
102
RTVSPropertyOp30
 70
     0
102
RTVSPropertyOp31
 70
     0
102
RTVSPropertyOp32
 70
     0
102
RTVSPropertyOp33
 70
     0
102
RTVSPropertyOp34
 70
     0
102
RTVSPropertyOp35
 70
     0
102
RTVSPropertyOp36
 70
     0
102
RTVSPropertyOp37
 70
     0
102
RTVSPropertyOp38
 70
     0
102
RTVSPropertyOp39
 70
     0
102
RTVSPropertyOp40
 70
     0
102
RTVSPropertyOp41
 70
     0
102
RTVSPropertyOp42
 70
     0
102
RTVSPropertyOp43
 70
     0
102
RTVSPropertyOp44
 70
     0
102
RTVSPropertyOp45
 70
     0
102
RTVSPropertyOp46
 70
     0
102
RTVSPropertyOp47
 70
     0
102
RTVSPropertyOp48
 70
     0
102
RTVSPropertyOp49
 70
     0
102
RTVSPropertyOp50
 70
     0
102
RTVSPropertyOp51
 70
     0
102
RTVSPropertyOp52
 70
     0
102
RTVSPropertyOp53
 70
     0
102
RTVSPropertyOp54
 70
     0
102
RTVSPropertyOp55
 70
     0
102
RTVSPropertyOp56
 70
     0
102
RTVSPropertyOp57
 70
     0
102
RTVSPropertyOp58
 70
     0
102
RTVSPropertyOp59
 70
     0
102
RTVSPropertyOp60
 70
     0
102
RTVSPropertyOp61
 70
     0
102
RTVSPropertyOp62
 70
     0
  0
XRECORD
  5
11D93
102
{ACAD_REACTORS
330
11D92
102
}
330
11D92
100
AcDbXrecord
280
     1
102
RTVSPost2010Prop28
280
     0
102
RTVSPost2010PropOp28
 70
     1
102
RTVSPost2010Prop29
280
     1
102
RTVSPost2010PropOp29
 70
     1
102
RTVSPost2010Prop30
280
     1
102
RTVSPost2010PropOp30
 70
     1
102
RTVSPost2010Prop31
280
     0
102
RTVSPost2010PropOp31
 70
     1
102
RTVSPost2010Prop32
280
     0
102
RTVSPost2010PropOp32
 70
     1
102
RTVSPost2010Prop33
280
     0
102
RTVSPost2010PropOp33
 70
     1
102
RTVSPost2010Prop34
280
     0
102
RTVSPost2010PropOp34
 70
     1
102
RTVSPost2010Prop35
280
     0
102
RTVSPost2010PropOp35
 70
     1
102
RTVSPost2010Prop36
280
     0
102
RTVSPost2010PropOp36
 70
     1
102
RTVSPost2010Prop37
 90
       50
102
RTVSPost2010PropOp37
 70
     1
102
RTVSPost2010Prop38
140
0.0
102
RTVSPost2010PropOp38
 70
     1
102
RTVSPost2010Prop39
140
1.0
102
RTVSPost2010PropOp39
 70
     1
102
RTVSPost2010Prop40
 90
        0
102
RTVSPost2010PropOp40
 70
     1
102
RTVSPost2010Prop41ColorIndex
 90
       18
102
RTVSPost2010Prop41ColorRGB
 90
        0
102
RTVSPost2010PropOp41
 70
     1
102
RTVSPost2010Prop42
 90
       50
102
RTVSPost2010PropOp42
 70
     1
102
RTVSPost2010Prop43
 90
        3
102
RTVSPost2010PropOp43
 70
     1
102
RTVSPost2010Prop44ColorIndex
 90
        5
102
RTVSPost2010Prop44ColorRGB
 90
      255
102
RTVSPost2010PropOp44
 70
     1
102
RTVSPost2010Prop45
280
     0
102
RTVSPost2010PropOp45
 70
     1
102
RTVSPost2010Prop46
 90
       50
102
RTVSPost2010PropOp46
 70
     1
102
RTVSPost2010Prop47
 90
       50
102
RTVSPost2010PropOp47
 70
     1
102
RTVSPost2010Prop48
 90
       50
102
RTVSPost2010PropOp48
 70
     1
102
RTVSPost2010Prop49
280
     0
102
RTVSPost2010PropOp49
 70
     1
102
RTVSPost2010Prop50
 90
       50
102
RTVSPost2010PropOp50
 70
     1
102
RTVSPost2010Prop51ColorIndex
 90
      256
102
RTVSPost2010Prop51ColorRGB
 90
-16777216
102
RTVSPost2010PropOp51
 70
     0
102
RTVSPost2010Prop52
140
1.0
102
RTVSPost2010PropOp52
 70
     0
102
RTVSPost2010Prop53
 90
        2
102
RTVSPost2010PropOp53
 70
     1
102
RTVSPost2010Prop54
  1
strokes_ogs.tif
102
RTVSPost2010PropOp54
 70
     1
102
RTVSPost2010Prop55
280
     0
102
RTVSPost2010PropOp55
 70
     1
102
RTVSPost2010Prop56
140
1.0
102
RTVSPost2010PropOp56
 70
     1
102
RTVSPost2010Prop57
140
1.0
102
RTVSPost2010PropOp57
 70
     1
102
RTVSPropertyOp0
 70
     1
102
RTVSPropertyOp1
 70
     1
102
RTVSPropertyOp2
 70
     1
102
RTVSPropertyOp3
 70
     1
102
RTVSPropertyOp4
 70
     1
102
RTVSPropertyOp5
 70
     1
102
RTVSPropertyOp6
 70
     1
102
RTVSPropertyOp7
 70
     1
102
RTVSPropertyOp8
 70
     1
102
RTVSPropertyOp9
 70
     1
102
RTVSPropertyOp10
 70
     1
102
RTVSPropertyOp11
 70
     1
102
RTVSPropertyOp12
 70
     1
102
RTVSPropertyOp13
 70
     1
102
RTVSPropertyOp14
 70
     1
102
RTVSPropertyOp15
 70
     1
102
RTVSPropertyOp16
 70
     1
102
RTVSPropertyOp17
 70
     1
102
RTVSPropertyOp18
 70
     1
102
RTVSPropertyOp19
 70
     1
102
RTVSPropertyOp20
 70
     1
102
RTVSPropertyOp21
 70
     1
102
RTVSPropertyOp22
 70
     1
102
RTVSPropertyOp23
 70
     1
102
RTVSPropertyOp24
 70
     1
102
RTVSPropertyOp25
 70
     1
102
RTVSPropertyOp26
 70
     1
102
RTVSPropertyOp27
 70
     1
102
RTVSPropertyOp28
 70
     1
102
RTVSPropertyOp29
 70
     1
102
RTVSPropertyOp30
 70
     1
102
RTVSPropertyOp31
 70
     1
102
RTVSPropertyOp32
 70
     1
102
RTVSPropertyOp33
 70
     1
102
RTVSPropertyOp34
 70
     1
102
RTVSPropertyOp35
 70
     1
102
RTVSPropertyOp36
 70
     1
102
RTVSPropertyOp37
 70
     1
102
RTVSPropertyOp38
 70
     1
102
RTVSPropertyOp39
 70
     1
102
RTVSPropertyOp40
 70
     1
102
RTVSPropertyOp41
 70
     1
102
RTVSPropertyOp42
 70
     1
102
RTVSPropertyOp43
 70
     1
102
RTVSPropertyOp44
 70
     1
102
RTVSPropertyOp45
 70
     1
102
RTVSPropertyOp46
 70
     1
102
RTVSPropertyOp47
 70
     1
102
RTVSPropertyOp48
 70
     1
102
RTVSPropertyOp49
 70
     1
102
RTVSPropertyOp50
 70
     1
102
RTVSPropertyOp51
 70
     0
102
RTVSPropertyOp52
 70
     0
102
RTVSPropertyOp53
 70
     1
102
RTVSPropertyOp54
 70
     1
102
RTVSPropertyOp55
 70
     1
102
RTVSPropertyOp56
 70
     1
102
RTVSPropertyOp57
 70
     1
102
RTVSPropertyOp58
 70
     1
102
RTVSPropertyOp59
 70
     1
102
RTVSPropertyOp60
 70
     1
102
RTVSPropertyOp61
 70
     1
102
RTVSPropertyOp62
 70
     1
  0
XRECORD
  5
11D77
102
{ACAD_REACTORS
330
11D76
102
}
330
11D76
100
AcDbXrecord
280
     1
102
RTVSPost2010Prop28
280
     0
102
RTVSPost2010PropOp28
 70
     1
102
RTVSPost2010Prop29
280
     1
102
RTVSPost2010PropOp29
 70
     1
102
RTVSPost2010Prop30
280
     1
102
RTVSPost2010PropOp30
 70
     1
102
RTVSPost2010Prop31
280
     0
102
RTVSPost2010PropOp31
 70
     1
102
RTVSPost2010Prop32
280
     0
102
RTVSPost2010PropOp32
 70
     1
102
RTVSPost2010Prop33
280
     0
102
RTVSPost2010PropOp33
 70
     1
102
RTVSPost2010Prop34
280
     0
102
RTVSPost2010PropOp34
 70
     1
102
RTVSPost2010Prop35
280
     0
102
RTVSPost2010PropOp35
 70
     1
102
RTVSPost2010Prop36
280
     0
102
RTVSPost2010PropOp36
 70
     1
102
RTVSPost2010Prop37
 90
       50
102
RTVSPost2010PropOp37
 70
     1
102
RTVSPost2010Prop38
140
0.0
102
RTVSPost2010PropOp38
 70
     1
102
RTVSPost2010Prop39
140
1.0
102
RTVSPost2010PropOp39
 70
     1
102
RTVSPost2010Prop40
 90
        0
102
RTVSPost2010PropOp40
 70
     1
102
RTVSPost2010Prop41ColorIndex
 90
       18
102
RTVSPost2010Prop41ColorRGB
 90
        0
102
RTVSPost2010PropOp41
 70
     1
102
RTVSPost2010Prop42
 90
       50
102
RTVSPost2010PropOp42
 70
     1
102
RTVSPost2010Prop43
 90
        3
102
RTVSPost2010PropOp43
 70
     1
102
RTVSPost2010Prop44ColorIndex
 90
        5
102
RTVSPost2010Prop44ColorRGB
 90
      255
102
RTVSPost2010PropOp44
 70
     1
102
RTVSPost2010Prop45
280
     0
102
RTVSPost2010PropOp45
 70
     1
102
RTVSPost2010Prop46
 90
       50
102
RTVSPost2010PropOp46
 70
     1
102
RTVSPost2010Prop47
 90
       50
102
RTVSPost2010PropOp47
 70
     1
102
RTVSPost2010Prop48
 90
       50
102
RTVSPost2010PropOp48
 70
     1
102
RTVSPost2010Prop49
280
     0
102
RTVSPost2010PropOp49
 70
     1
102
RTVSPost2010Prop50
 90
       50
102
RTVSPost2010PropOp50
 70
     1
102
RTVSPost2010Prop51ColorIndex
 90
      256
102
RTVSPost2010Prop51ColorRGB
 90
-16777216
102
RTVSPost2010PropOp51
 70
     0
102
RTVSPost2010Prop52
140
1.0
102
RTVSPost2010PropOp52
 70
     0
102
RTVSPost2010Prop53
 90
        2
102
RTVSPost2010PropOp53
 70
     1
102
RTVSPost2010Prop54
  1
strokes_ogs.tif
102
RTVSPost2010PropOp54
 70
     1
102
RTVSPost2010Prop55
280
     0
102
RTVSPost2010PropOp55
 70
     1
102
RTVSPost2010Prop56
140
1.0
102
RTVSPost2010PropOp56
 70
     1
102
RTVSPost2010Prop57
140
1.0
102
RTVSPost2010PropOp57
 70
     1
102
RTVSPropertyOp0
 70
     1
102
RTVSPropertyOp1
 70
     1
102
RTVSPropertyOp2
 70
     1
102
RTVSPropertyOp3
 70
     1
102
RTVSPropertyOp4
 70
     1
102
RTVSPropertyOp5
 70
     1
102
RTVSPropertyOp6
 70
     1
102
RTVSPropertyOp7
 70
     1
102
RTVSPropertyOp8
 70
     1
102
RTVSPropertyOp9
 70
     1
102
RTVSPropertyOp10
 70
     1
102
RTVSPropertyOp11
 70
     1
102
RTVSPropertyOp12
 70
     1
102
RTVSPropertyOp13
 70
     1
102
RTVSPropertyOp14
 70
     1
102
RTVSPropertyOp15
 70
     1
102
RTVSPropertyOp16
 70
     1
102
RTVSPropertyOp17
 70
     1
102
RTVSPropertyOp18
 70
     1
102
RTVSPropertyOp19
 70
     1
102
RTVSPropertyOp20
 70
     1
102
RTVSPropertyOp21
 70
     1
102
RTVSPropertyOp22
 70
     1
102
RTVSPropertyOp23
 70
     1
102
RTVSPropertyOp24
 70
     1
102
RTVSPropertyOp25
 70
     1
102
RTVSPropertyOp26
 70
     1
102
RTVSPropertyOp27
 70
     1
102
RTVSPropertyOp28
 70
     1
102
RTVSPropertyOp29
 70
     1
102
RTVSPropertyOp30
 70
     1
102
RTVSPropertyOp31
 70
     1
102
RTVSPropertyOp32
 70
     1
102
RTVSPropertyOp33
 70
     1
102
RTVSPropertyOp34
 70
     1
102
RTVSPropertyOp35
 70
     1
102
RTVSPropertyOp36
 70
     1
102
RTVSPropertyOp37
 70
     1
102
RTVSPropertyOp38
 70
     1
102
RTVSPropertyOp39
 70
     1
102
RTVSPropertyOp40
 70
     1
102
RTVSPropertyOp41
 70
     1
102
RTVSPropertyOp42
 70
     1
102
RTVSPropertyOp43
 70
     1
102
RTVSPropertyOp44
 70
     1
102
RTVSPropertyOp45
 70
     1
102
RTVSPropertyOp46
 70
     1
102
RTVSPropertyOp47
 70
     1
102
RTVSPropertyOp48
 70
     1
102
RTVSPropertyOp49
 70
     1
102
RTVSPropertyOp50
 70
     1
102
RTVSPropertyOp51
 70
     0
102
RTVSPropertyOp52
 70
     0
102
RTVSPropertyOp53
 70
     1
102
RTVSPropertyOp54
 70
     1
102
RTVSPropertyOp55
 70
     1
102
RTVSPropertyOp56
 70
     1
102
RTVSPropertyOp57
 70
     1
102
RTVSPropertyOp58
 70
     1
102
RTVSPropertyOp59
 70
     1
102
RTVSPropertyOp60
 70
     1
102
RTVSPropertyOp61
 70
     1
102
RTVSPropertyOp62
 70
     1
  0
XRECORD
  5
11D79
102
{ACAD_REACTORS
330
11D78
102
}
330
11D78
100
AcDbXrecord
280
     1
102
RTVSPost2010Prop28
280
     0
102
RTVSPost2010PropOp28
 70
     1
102
RTVSPost2010Prop29
280
     1
102
RTVSPost2010PropOp29
 70
     1
102
RTVSPost2010Prop30
280
     1
102
RTVSPost2010PropOp30
 70
     1
102
RTVSPost2010Prop31
280
     0
102
RTVSPost2010PropOp31
 70
     1
102
RTVSPost2010Prop32
280
     0
102
RTVSPost2010PropOp32
 70
     1
102
RTVSPost2010Prop33
280
     0
102
RTVSPost2010PropOp33
 70
     1
102
RTVSPost2010Prop34
280
     0
102
RTVSPost2010PropOp34
 70
     1
102
RTVSPost2010Prop35
280
     0
102
RTVSPost2010PropOp35
 70
     1
102
RTVSPost2010Prop36
280
     0
102
RTVSPost2010PropOp36
 70
     1
102
RTVSPost2010Prop37
 90
       50
102
RTVSPost2010PropOp37
 70
     1
102
RTVSPost2010Prop38
140
0.0
102
RTVSPost2010PropOp38
 70
     1
102
RTVSPost2010Prop39
140
1.0
102
RTVSPost2010PropOp39
 70
     1
102
RTVSPost2010Prop40
 90
        0
102
RTVSPost2010PropOp40
 70
     1
102
RTVSPost2010Prop41ColorIndex
 90
       18
102
RTVSPost2010Prop41ColorRGB
 90
        0
102
RTVSPost2010PropOp41
 70
     1
102
RTVSPost2010Prop42
 90
       50
102
RTVSPost2010PropOp42
 70
     1
102
RTVSPost2010Prop43
 90
        3
102
RTVSPost2010PropOp43
 70
     1
102
RTVSPost2010Prop44ColorIndex
 90
        5
102
RTVSPost2010Prop44ColorRGB
 90
      255
102
RTVSPost2010PropOp44
 70
     1
102
RTVSPost2010Prop45
280
     0
102
RTVSPost2010PropOp45
 70
     1
102
RTVSPost2010Prop46
 90
       50
102
RTVSPost2010PropOp46
 70
     1
102
RTVSPost2010Prop47
 90
       50
102
RTVSPost2010PropOp47
 70
     1
102
RTVSPost2010Prop48
 90
       50
102
RTVSPost2010PropOp48
 70
     1
102
RTVSPost2010Prop49
280
     0
102
RTVSPost2010PropOp49
 70
     1
102
RTVSPost2010Prop50
 90
       50
102
RTVSPost2010PropOp50
 70
     1
102
RTVSPost2010Prop51ColorIndex
 90
      256
102
RTVSPost2010Prop51ColorRGB
 90
-16777216
102
RTVSPost2010PropOp51
 70
     0
102
RTVSPost2010Prop52
140
1.0
102
RTVSPost2010PropOp52
 70
     0
102
RTVSPost2010Prop53
 90
        2
102
RTVSPost2010PropOp53
 70
     1
102
RTVSPost2010Prop54
  1
strokes_ogs.tif
102
RTVSPost2010PropOp54
 70
     1
102
RTVSPost2010Prop55
280
     0
102
RTVSPost2010PropOp55
 70
     1
102
RTVSPost2010Prop56
140
1.0
102
RTVSPost2010PropOp56
 70
     1
102
RTVSPost2010Prop57
140
1.0
102
RTVSPost2010PropOp57
 70
     1
102
RTVSPropertyOp0
 70
     1
102
RTVSPropertyOp1
 70
     1
102
RTVSPropertyOp2
 70
     1
102
RTVSPropertyOp3
 70
     1
102
RTVSPropertyOp4
 70
     1
102
RTVSPropertyOp5
 70
     1
102
RTVSPropertyOp6
 70
     1
102
RTVSPropertyOp7
 70
     1
102
RTVSPropertyOp8
 70
     1
102
RTVSPropertyOp9
 70
     1
102
RTVSPropertyOp10
 70
     1
102
RTVSPropertyOp11
 70
     1
102
RTVSPropertyOp12
 70
     1
102
RTVSPropertyOp13
 70
     1
102
RTVSPropertyOp14
 70
     1
102
RTVSPropertyOp15
 70
     1
102
RTVSPropertyOp16
 70
     1
102
RTVSPropertyOp17
 70
     1
102
RTVSPropertyOp18
 70
     1
102
RTVSPropertyOp19
 70
     1
102
RTVSPropertyOp20
 70
     1
102
RTVSPropertyOp21
 70
     1
102
RTVSPropertyOp22
 70
     1
102
RTVSPropertyOp23
 70
     1
102
RTVSPropertyOp24
 70
     1
102
RTVSPropertyOp25
 70
     1
102
RTVSPropertyOp26
 70
     1
102
RTVSPropertyOp27
 70
     1
102
RTVSPropertyOp28
 70
     1
102
RTVSPropertyOp29
 70
     1
102
RTVSPropertyOp30
 70
     1
102
RTVSPropertyOp31
 70
     1
102
RTVSPropertyOp32
 70
     1
102
RTVSPropertyOp33
 70
     1
102
RTVSPropertyOp34
 70
     1
102
RTVSPropertyOp35
 70
     1
102
RTVSPropertyOp36
 70
     1
102
RTVSPropertyOp37
 70
     1
102
RTVSPropertyOp38
 70
     1
102
RTVSPropertyOp39
 70
     1
102
RTVSPropertyOp40
 70
     1
102
RTVSPropertyOp41
 70
     1
102
RTVSPropertyOp42
 70
     1
102
RTVSPropertyOp43
 70
     1
102
RTVSPropertyOp44
 70
     1
102
RTVSPropertyOp45
 70
     1
102
RTVSPropertyOp46
 70
     1
102
RTVSPropertyOp47
 70
     1
102
RTVSPropertyOp48
 70
     1
102
RTVSPropertyOp49
 70
     1
102
RTVSPropertyOp50
 70
     1
102
RTVSPropertyOp51
 70
     0
102
RTVSPropertyOp52
 70
     0
102
RTVSPropertyOp53
 70
     1
102
RTVSPropertyOp54
 70
     1
102
RTVSPropertyOp55
 70
     1
102
RTVSPropertyOp56
 70
     1
102
RTVSPropertyOp57
 70
     1
102
RTVSPropertyOp58
 70
     1
102
RTVSPropertyOp59
 70
     1
102
RTVSPropertyOp60
 70
     1
102
RTVSPropertyOp61
 70
     1
102
RTVSPropertyOp62
 70
     1
  0
XRECORD
  5
11D7B
102
{ACAD_REACTORS
330
11D7A
102
}
330
11D7A
100
AcDbXrecord
280
     1
102
RTVSPost2010Prop28
280
     0
102
RTVSPost2010PropOp28
 70
     1
102
RTVSPost2010Prop29
280
     1
102
RTVSPost2010PropOp29
 70
     1
102
RTVSPost2010Prop30
280
     1
102
RTVSPost2010PropOp30
 70
     1
102
RTVSPost2010Prop31
280
     0
102
RTVSPost2010PropOp31
 70
     1
102
RTVSPost2010Prop32
280
     0
102
RTVSPost2010PropOp32
 70
     1
102
RTVSPost2010Prop33
280
     0
102
RTVSPost2010PropOp33
 70
     1
102
RTVSPost2010Prop34
280
     0
102
RTVSPost2010PropOp34
 70
     1
102
RTVSPost2010Prop35
280
     0
102
RTVSPost2010PropOp35
 70
     1
102
RTVSPost2010Prop36
280
     0
102
RTVSPost2010PropOp36
 70
     1
102
RTVSPost2010Prop37
 90
       50
102
RTVSPost2010PropOp37
 70
     1
102
RTVSPost2010Prop38
140
0.0
102
RTVSPost2010PropOp38
 70
     1
102
RTVSPost2010Prop39
140
1.0
102
RTVSPost2010PropOp39
 70
     1
102
RTVSPost2010Prop40
 90
        0
102
RTVSPost2010PropOp40
 70
     1
102
RTVSPost2010Prop41ColorIndex
 90
       18
102
RTVSPost2010Prop41ColorRGB
 90
        0
102
RTVSPost2010PropOp41
 70
     1
102
RTVSPost2010Prop42
 90
       50
102
RTVSPost2010PropOp42
 70
     1
102
RTVSPost2010Prop43
 90
        3
102
RTVSPost2010PropOp43
 70
     1
102
RTVSPost2010Prop44ColorIndex
 90
        5
102
RTVSPost2010Prop44ColorRGB
 90
      255
102
RTVSPost2010PropOp44
 70
     1
102
RTVSPost2010Prop45
280
     0
102
RTVSPost2010PropOp45
 70
     1
102
RTVSPost2010Prop46
 90
       50
102
RTVSPost2010PropOp46
 70
     1
102
RTVSPost2010Prop47
 90
       50
102
RTVSPost2010PropOp47
 70
     1
102
RTVSPost2010Prop48
 90
       50
102
RTVSPost2010PropOp48
 70
     1
102
RTVSPost2010Prop49
280
     0
102
RTVSPost2010PropOp49
 70
     1
102
RTVSPost2010Prop50
 90
       50
102
RTVSPost2010PropOp50
 70
     1
102
RTVSPost2010Prop51ColorIndex
 90
      256
102
RTVSPost2010Prop51ColorRGB
 90
-16777216
102
RTVSPost2010PropOp51
 70
     0
102
RTVSPost2010Prop52
140
1.0
102
RTVSPost2010PropOp52
 70
     0
102
RTVSPost2010Prop53
 90
        2
102
RTVSPost2010PropOp53
 70
     1
102
RTVSPost2010Prop54
  1
strokes_ogs.tif
102
RTVSPost2010PropOp54
 70
     1
102
RTVSPost2010Prop55
280
     0
102
RTVSPost2010PropOp55
 70
     1
102
RTVSPost2010Prop56
140
1.0
102
RTVSPost2010PropOp56
 70
     1
102
RTVSPost2010Prop57
140
1.0
102
RTVSPost2010PropOp57
 70
     1
102
RTVSPropertyOp0
 70
     1
102
RTVSPropertyOp1
 70
     1
102
RTVSPropertyOp2
 70
     1
102
RTVSPropertyOp3
 70
     1
102
RTVSPropertyOp4
 70
     1
102
RTVSPropertyOp5
 70
     1
102
RTVSPropertyOp6
 70
     1
102
RTVSPropertyOp7
 70
     1
102
RTVSPropertyOp8
 70
     1
102
RTVSPropertyOp9
 70
     1
102
RTVSPropertyOp10
 70
     1
102
RTVSPropertyOp11
 70
     1
102
RTVSPropertyOp12
 70
     1
102
RTVSPropertyOp13
 70
     1
102
RTVSPropertyOp14
 70
     1
102
RTVSPropertyOp15
 70
     1
102
RTVSPropertyOp16
 70
     1
102
RTVSPropertyOp17
 70
     1
102
RTVSPropertyOp18
 70
     1
102
RTVSPropertyOp19
 70
     1
102
RTVSPropertyOp20
 70
     1
102
RTVSPropertyOp21
 70
     1
102
RTVSPropertyOp22
 70
     1
102
RTVSPropertyOp23
 70
     1
102
RTVSPropertyOp24
 70
     1
102
RTVSPropertyOp25
 70
     1
102
RTVSPropertyOp26
 70
     1
102
RTVSPropertyOp27
 70
     1
102
RTVSPropertyOp28
 70
     1
102
RTVSPropertyOp29
 70
     1
102
RTVSPropertyOp30
 70
     1
102
RTVSPropertyOp31
 70
     1
102
RTVSPropertyOp32
 70
     1
102
RTVSPropertyOp33
 70
     1
102
RTVSPropertyOp34
 70
     1
102
RTVSPropertyOp35
 70
     1
102
RTVSPropertyOp36
 70
     1
102
RTVSPropertyOp37
 70
     1
102
RTVSPropertyOp38
 70
     1
102
RTVSPropertyOp39
 70
     1
102
RTVSPropertyOp40
 70
     1
102
RTVSPropertyOp41
 70
     1
102
RTVSPropertyOp42
 70
     1
102
RTVSPropertyOp43
 70
     1
102
RTVSPropertyOp44
 70
     1
102
RTVSPropertyOp45
 70
     1
102
RTVSPropertyOp46
 70
     1
102
RTVSPropertyOp47
 70
     1
102
RTVSPropertyOp48
 70
     1
102
RTVSPropertyOp49
 70
     1
102
RTVSPropertyOp50
 70
     1
102
RTVSPropertyOp51
 70
     0
102
RTVSPropertyOp52
 70
     0
102
RTVSPropertyOp53
 70
     1
102
RTVSPropertyOp54
 70
     1
102
RTVSPropertyOp55
 70
     1
102
RTVSPropertyOp56
 70
     1
102
RTVSPropertyOp57
 70
     1
102
RTVSPropertyOp58
 70
     1
102
RTVSPropertyOp59
 70
     1
102
RTVSPropertyOp60
 70
     1
102
RTVSPropertyOp61
 70
     1
102
RTVSPropertyOp62
 70
     1
  0
XRECORD
  5
11D7D
102
{ACAD_REACTORS
330
11D7C
102
}
330
11D7C
100
AcDbXrecord
280
     1
102
RTVSPost2010Prop28
280
     0
102
RTVSPost2010PropOp28
 70
     1
102
RTVSPost2010Prop29
280
     1
102
RTVSPost2010PropOp29
 70
     1
102
RTVSPost2010Prop30
280
     1
102
RTVSPost2010PropOp30
 70
     1
102
RTVSPost2010Prop31
280
     0
102
RTVSPost2010PropOp31
 70
     1
102
RTVSPost2010Prop32
280
     0
102
RTVSPost2010PropOp32
 70
     1
102
RTVSPost2010Prop33
280
     0
102
RTVSPost2010PropOp33
 70
     1
102
RTVSPost2010Prop34
280
     0
102
RTVSPost2010PropOp34
 70
     1
102
RTVSPost2010Prop35
280
     0
102
RTVSPost2010PropOp35
 70
     1
102
RTVSPost2010Prop36
280
     0
102
RTVSPost2010PropOp36
 70
     1
102
RTVSPost2010Prop37
 90
       50
102
RTVSPost2010PropOp37
 70
     1
102
RTVSPost2010Prop38
140
0.0
102
RTVSPost2010PropOp38
 70
     1
102
RTVSPost2010Prop39
140
1.0
102
RTVSPost2010PropOp39
 70
     1
102
RTVSPost2010Prop40
 90
        0
102
RTVSPost2010PropOp40
 70
     1
102
RTVSPost2010Prop41ColorIndex
 90
       18
102
RTVSPost2010Prop41ColorRGB
 90
        0
102
RTVSPost2010PropOp41
 70
     1
102
RTVSPost2010Prop42
 90
       50
102
RTVSPost2010PropOp42
 70
     1
102
RTVSPost2010Prop43
 90
        3
102
RTVSPost2010PropOp43
 70
     1
102
RTVSPost2010Prop44ColorIndex
 90
        5
102
RTVSPost2010Prop44ColorRGB
 90
      255
102
RTVSPost2010PropOp44
 70
     1
102
RTVSPost2010Prop45
280
     0
102
RTVSPost2010PropOp45
 70
     1
102
RTVSPost2010Prop46
 90
       50
102
RTVSPost2010PropOp46
 70
     1
102
RTVSPost2010Prop47
 90
       50
102
RTVSPost2010PropOp47
 70
     1
102
RTVSPost2010Prop48
 90
       50
102
RTVSPost2010PropOp48
 70
     1
102
RTVSPost2010Prop49
280
     0
102
RTVSPost2010PropOp49
 70
     1
102
RTVSPost2010Prop50
 90
       50
102
RTVSPost2010PropOp50
 70
     1
102
RTVSPost2010Prop51ColorIndex
 90
      256
102
RTVSPost2010Prop51ColorRGB
 90
-16777216
102
RTVSPost2010PropOp51
 70
     0
102
RTVSPost2010Prop52
140
1.0
102
RTVSPost2010PropOp52
 70
     0
102
RTVSPost2010Prop53
 90
        2
102
RTVSPost2010PropOp53
 70
     1
102
RTVSPost2010Prop54
  1
strokes_ogs.tif
102
RTVSPost2010PropOp54
 70
     1
102
RTVSPost2010Prop55
280
     0
102
RTVSPost2010PropOp55
 70
     1
102
RTVSPost2010Prop56
140
1.0
102
RTVSPost2010PropOp56
 70
     1
102
RTVSPost2010Prop57
140
1.0
102
RTVSPost2010PropOp57
 70
     1
102
RTVSPropertyOp0
 70
     1
102
RTVSPropertyOp1
 70
     1
102
RTVSPropertyOp2
 70
     1
102
RTVSPropertyOp3
 70
     1
102
RTVSPropertyOp4
 70
     1
102
RTVSPropertyOp5
 70
     1
102
RTVSPropertyOp6
 70
     1
102
RTVSPropertyOp7
 70
     1
102
RTVSPropertyOp8
 70
     1
102
RTVSPropertyOp9
 70
     1
102
RTVSPropertyOp10
 70
     1
102
RTVSPropertyOp11
 70
     1
102
RTVSPropertyOp12
 70
     1
102
RTVSPropertyOp13
 70
     1
102
RTVSPropertyOp14
 70
     1
102
RTVSPropertyOp15
 70
     1
102
RTVSPropertyOp16
 70
     1
102
RTVSPropertyOp17
 70
     1
102
RTVSPropertyOp18
 70
     1
102
RTVSPropertyOp19
 70
     1
102
RTVSPropertyOp20
 70
     1
102
RTVSPropertyOp21
 70
     1
102
RTVSPropertyOp22
 70
     1
102
RTVSPropertyOp23
 70
     1
102
RTVSPropertyOp24
 70
     1
102
RTVSPropertyOp25
 70
     1
102
RTVSPropertyOp26
 70
     1
102
RTVSPropertyOp27
 70
     1
102
RTVSPropertyOp28
 70
     1
102
RTVSPropertyOp29
 70
     1
102
RTVSPropertyOp30
 70
     1
102
RTVSPropertyOp31
 70
     1
102
RTVSPropertyOp32
 70
     1
102
RTVSPropertyOp33
 70
     1
102
RTVSPropertyOp34
 70
     1
102
RTVSPropertyOp35
 70
     1
102
RTVSPropertyOp36
 70
     1
102
RTVSPropertyOp37
 70
     1
102
RTVSPropertyOp38
 70
     1
102
RTVSPropertyOp39
 70
     1
102
RTVSPropertyOp40
 70
     1
102
RTVSPropertyOp41
 70
     1
102
RTVSPropertyOp42
 70
     1
102
RTVSPropertyOp43
 70
     1
102
RTVSPropertyOp44
 70
     1
102
RTVSPropertyOp45
 70
     1
102
RTVSPropertyOp46
 70
     1
102
RTVSPropertyOp47
 70
     1
102
RTVSPropertyOp48
 70
     1
102
RTVSPropertyOp49
 70
     1
102
RTVSPropertyOp50
 70
     1
102
RTVSPropertyOp51
 70
     0
102
RTVSPropertyOp52
 70
     0
102
RTVSPropertyOp53
 70
     1
102
RTVSPropertyOp54
 70
     1
102
RTVSPropertyOp55
 70
     1
102
RTVSPropertyOp56
 70
     1
102
RTVSPropertyOp57
 70
     1
102
RTVSPropertyOp58
 70
     1
102
RTVSPropertyOp59
 70
     1
102
RTVSPropertyOp60
 70
     1
102
RTVSPropertyOp61
 70
     1
102
RTVSPropertyOp62
 70
     1
  0
XRECORD
  5
11D85
102
{ACAD_REACTORS
330
11D84
102
}
330
11D84
100
AcDbXrecord
280
     1
102
RTVSPost2010Prop28
280
     0
102
RTVSPost2010PropOp28
 70
     1
102
RTVSPost2010Prop29
280
     1
102
RTVSPost2010PropOp29
 70
     1
102
RTVSPost2010Prop30
280
     1
102
RTVSPost2010PropOp30
 70
     1
102
RTVSPost2010Prop31
280
     0
102
RTVSPost2010PropOp31
 70
     1
102
RTVSPost2010Prop32
280
     0
102
RTVSPost2010PropOp32
 70
     1
102
RTVSPost2010Prop33
280
     0
102
RTVSPost2010PropOp33
 70
     1
102
RTVSPost2010Prop34
280
     0
102
RTVSPost2010PropOp34
 70
     1
102
RTVSPost2010Prop35
280
     0
102
RTVSPost2010PropOp35
 70
     1
102
RTVSPost2010Prop36
280
     0
102
RTVSPost2010PropOp36
 70
     1
102
RTVSPost2010Prop37
 90
       50
102
RTVSPost2010PropOp37
 70
     1
102
RTVSPost2010Prop38
140
0.0
102
RTVSPost2010PropOp38
 70
     1
102
RTVSPost2010Prop39
140
1.0
102
RTVSPost2010PropOp39
 70
     1
102
RTVSPost2010Prop40
 90
        0
102
RTVSPost2010PropOp40
 70
     1
102
RTVSPost2010Prop41ColorIndex
 90
       18
102
RTVSPost2010Prop41ColorRGB
 90
        0
102
RTVSPost2010PropOp41
 70
     1
102
RTVSPost2010Prop42
 90
       50
102
RTVSPost2010PropOp42
 70
     1
102
RTVSPost2010Prop43
 90
        3
102
RTVSPost2010PropOp43
 70
     1
102
RTVSPost2010Prop44ColorIndex
 90
        5
102
RTVSPost2010Prop44ColorRGB
 90
      255
102
RTVSPost2010PropOp44
 70
     1
102
RTVSPost2010Prop45
280
     0
102
RTVSPost2010PropOp45
 70
     1
102
RTVSPost2010Prop46
 90
       50
102
RTVSPost2010PropOp46
 70
     1
102
RTVSPost2010Prop47
 90
       50
102
RTVSPost2010PropOp47
 70
     1
102
RTVSPost2010Prop48
 90
       50
102
RTVSPost2010PropOp48
 70
     1
102
RTVSPost2010Prop49
280
     0
102
RTVSPost2010PropOp49
 70
     1
102
RTVSPost2010Prop50
 90
       50
102
RTVSPost2010PropOp50
 70
     1
102
RTVSPost2010Prop51ColorIndex
 90
      256
102
RTVSPost2010Prop51ColorRGB
 90
-16777216
102
RTVSPost2010PropOp51
 70
     0
102
RTVSPost2010Prop52
140
1.0
102
RTVSPost2010PropOp52
 70
     0
102
RTVSPost2010Prop53
 90
        2
102
RTVSPost2010PropOp53
 70
     1
102
RTVSPost2010Prop54
  1
strokes_ogs.tif
102
RTVSPost2010PropOp54
 70
     1
102
RTVSPost2010Prop55
280
     0
102
RTVSPost2010PropOp55
 70
     1
102
RTVSPost2010Prop56
140
1.0
102
RTVSPost2010PropOp56
 70
     1
102
RTVSPost2010Prop57
140
1.0
102
RTVSPost2010PropOp57
 70
     1
102
RTVSPropertyOp0
 70
     1
102
RTVSPropertyOp1
 70
     1
102
RTVSPropertyOp2
 70
     1
102
RTVSPropertyOp3
 70
     1
102
RTVSPropertyOp4
 70
     1
102
RTVSPropertyOp5
 70
     1
102
RTVSPropertyOp6
 70
     1
102
RTVSPropertyOp7
 70
     1
102
RTVSPropertyOp8
 70
     1
102
RTVSPropertyOp9
 70
     1
102
RTVSPropertyOp10
 70
     1
102
RTVSPropertyOp11
 70
     1
102
RTVSPropertyOp12
 70
     1
102
RTVSPropertyOp13
 70
     1
102
RTVSPropertyOp14
 70
     1
102
RTVSPropertyOp15
 70
     1
102
RTVSPropertyOp16
 70
     1
102
RTVSPropertyOp17
 70
     1
102
RTVSPropertyOp18
 70
     1
102
RTVSPropertyOp19
 70
     1
102
RTVSPropertyOp20
 70
     1
102
RTVSPropertyOp21
 70
     1
102
RTVSPropertyOp22
 70
     1
102
RTVSPropertyOp23
 70
     1
102
RTVSPropertyOp24
 70
     1
102
RTVSPropertyOp25
 70
     1
102
RTVSPropertyOp26
 70
     1
102
RTVSPropertyOp27
 70
     1
102
RTVSPropertyOp28
 70
     1
102
RTVSPropertyOp29
 70
     1
102
RTVSPropertyOp30
 70
     1
102
RTVSPropertyOp31
 70
     1
102
RTVSPropertyOp32
 70
     1
102
RTVSPropertyOp33
 70
     1
102
RTVSPropertyOp34
 70
     1
102
RTVSPropertyOp35
 70
     1
102
RTVSPropertyOp36
 70
     1
102
RTVSPropertyOp37
 70
     1
102
RTVSPropertyOp38
 70
     1
102
RTVSPropertyOp39
 70
     1
102
RTVSPropertyOp40
 70
     1
102
RTVSPropertyOp41
 70
     1
102
RTVSPropertyOp42
 70
     1
102
RTVSPropertyOp43
 70
     1
102
RTVSPropertyOp44
 70
     1
102
RTVSPropertyOp45
 70
     1
102
RTVSPropertyOp46
 70
     1
102
RTVSPropertyOp47
 70
     1
102
RTVSPropertyOp48
 70
     1
102
RTVSPropertyOp49
 70
     1
102
RTVSPropertyOp50
 70
     1
102
RTVSPropertyOp51
 70
     0
102
RTVSPropertyOp52
 70
     0
102
RTVSPropertyOp53
 70
     1
102
RTVSPropertyOp54
 70
     1
102
RTVSPropertyOp55
 70
     1
102
RTVSPropertyOp56
 70
     1
102
RTVSPropertyOp57
 70
     1
102
RTVSPropertyOp58
 70
     1
102
RTVSPropertyOp59
 70
     1
102
RTVSPropertyOp60
 70
     1
102
RTVSPropertyOp61
 70
     1
102
RTVSPropertyOp62
 70
     1
  0
XRECORD
  5
11DA1
102
{ACAD_REACTORS
330
11DA0
102
}
330
11DA0
100
AcDbXrecord
280
     1
102
RTVSPost2010Prop28
280
     0
102
RTVSPost2010PropOp28
 70
     0
102
RTVSPost2010Prop29
280
     1
102
RTVSPost2010PropOp29
 70
     0
102
RTVSPost2010Prop30
280
     1
102
RTVSPost2010PropOp30
 70
     0
102
RTVSPost2010Prop31
280
     0
102
RTVSPost2010PropOp31
 70
     0
102
RTVSPost2010Prop32
280
     0
102
RTVSPost2010PropOp32
 70
     0
102
RTVSPost2010Prop33
280
     0
102
RTVSPost2010PropOp33
 70
     0
102
RTVSPost2010Prop34
280
     0
102
RTVSPost2010PropOp34
 70
     0
102
RTVSPost2010Prop35
280
     0
102
RTVSPost2010PropOp35
 70
     0
102
RTVSPost2010Prop36
280
     0
102
RTVSPost2010PropOp36
 70
     0
102
RTVSPost2010Prop37
 90
       50
102
RTVSPost2010PropOp37
 70
     0
102
RTVSPost2010Prop38
140
0.0
102
RTVSPost2010PropOp38
 70
     0
102
RTVSPost2010Prop39
140
1.0
102
RTVSPost2010PropOp39
 70
     0
102
RTVSPost2010Prop40
 90
        0
102
RTVSPost2010PropOp40
 70
     0
102
RTVSPost2010Prop41ColorIndex
 90
       18
102
RTVSPost2010Prop41ColorRGB
 90
        0
102
RTVSPost2010PropOp41
 70
     0
102
RTVSPost2010Prop42
 90
       50
102
RTVSPost2010PropOp42
 70
     0
102
RTVSPost2010Prop43
 90
        3
102
RTVSPost2010PropOp43
 70
     0
102
RTVSPost2010Prop44ColorIndex
 90
        5
102
RTVSPost2010Prop44ColorRGB
 90
      255
102
RTVSPost2010PropOp44
 70
     0
102
RTVSPost2010Prop45
280
     0
102
RTVSPost2010PropOp45
 70
     0
102
RTVSPost2010Prop46
 90
       50
102
RTVSPost2010PropOp46
 70
     0
102
RTVSPost2010Prop47
 90
       50
102
RTVSPost2010PropOp47
 70
     0
102
RTVSPost2010Prop48
 90
       50
102
RTVSPost2010PropOp48
 70
     0
102
RTVSPost2010Prop49
280
     0
102
RTVSPost2010PropOp49
 70
     0
102
RTVSPost2010Prop50
 90
       50
102
RTVSPost2010PropOp50
 70
     0
102
RTVSPost2010Prop51ColorIndex
 90
      256
102
RTVSPost2010Prop51ColorRGB
 90
-16777216
102
RTVSPost2010PropOp51
 70
     0
102
RTVSPost2010Prop52
140
1.0
102
RTVSPost2010PropOp52
 70
     0
102
RTVSPost2010Prop53
 90
        2
102
RTVSPost2010PropOp53
 70
     0
102
RTVSPost2010Prop54
  1
strokes_ogs.tif
102
RTVSPost2010PropOp54
 70
     0
102
RTVSPost2010Prop55
280
     0
102
RTVSPost2010PropOp55
 70
     0
102
RTVSPost2010Prop56
140
1.0
102
RTVSPost2010PropOp56
 70
     0
102
RTVSPost2010Prop57
140
1.0
102
RTVSPost2010PropOp57
 70
     0
102
RTVSPropertyOp0
 70
     0
102
RTVSPropertyOp1
 70
     0
102
RTVSPropertyOp2
 70
     0
102
RTVSPropertyOp3
 70
     0
102
RTVSPropertyOp4
 70
     0
102
RTVSPropertyOp5
 70
     0
102
RTVSPropertyOp6
 70
     0
102
RTVSPropertyOp7
 70
     0
102
RTVSPropertyOp8
 70
     0
102
RTVSPropertyOp9
 70
     0
102
RTVSPropertyOp10
 70
     0
102
RTVSPropertyOp11
 70
     0
102
RTVSPropertyOp12
 70
     0
102
RTVSPropertyOp13
 70
     0
102
RTVSPropertyOp14
 70
     2
102
RTVSPropertyOp15
 70
     0
102
RTVSPropertyOp16
 70
     0
102
RTVSPropertyOp17
 70
     0
102
RTVSPropertyOp18
 70
     0
102
RTVSPropertyOp19
 70
     0
102
RTVSPropertyOp20
 70
     0
102
RTVSPropertyOp21
 70
     0
102
RTVSPropertyOp22
 70
     0
102
RTVSPropertyOp23
 70
     0
102
RTVSPropertyOp24
 70
     0
102
RTVSPropertyOp25
 70
     0
102
RTVSPropertyOp26
 70
     0
102
RTVSPropertyOp27
 70
     0
102
RTVSPropertyOp28
 70
     0
102
RTVSPropertyOp29
 70
     0
102
RTVSPropertyOp30
 70
     0
102
RTVSPropertyOp31
 70
     0
102
RTVSPropertyOp32
 70
     0
102
RTVSPropertyOp33
 70
     0
102
RTVSPropertyOp34
 70
     0
102
RTVSPropertyOp35
 70
     0
102
RTVSPropertyOp36
 70
     0
102
RTVSPropertyOp37
 70
     0
102
RTVSPropertyOp38
 70
     0
102
RTVSPropertyOp39
 70
     0
102
RTVSPropertyOp40
 70
     0
102
RTVSPropertyOp41
 70
     0
102
RTVSPropertyOp42
 70
     0
102
RTVSPropertyOp43
 70
     0
102
RTVSPropertyOp44
 70
     0
102
RTVSPropertyOp45
 70
     0
102
RTVSPropertyOp46
 70
     0
102
RTVSPropertyOp47
 70
     0
102
RTVSPropertyOp48
 70
     0
102
RTVSPropertyOp49
 70
     0
102
RTVSPropertyOp50
 70
     0
102
RTVSPropertyOp51
 70
     0
102
RTVSPropertyOp52
 70
     0
102
RTVSPropertyOp53
 70
     0
102
RTVSPropertyOp54
 70
     0
102
RTVSPropertyOp55
 70
     0
102
RTVSPropertyOp56
 70
     0
102
RTVSPropertyOp57
 70
     0
102
RTVSPropertyOp58
 70
     0
102
RTVSPropertyOp59
 70
     0
102
RTVSPropertyOp60
 70
     0
102
RTVSPropertyOp61
 70
     0
102
RTVSPropertyOp62
 70
     0
  0
XRECORD
  5
11D91
102
{ACAD_REACTORS
330
11D90
102
}
330
11D90
100
AcDbXrecord
280
     1
102
RTVSPost2010Prop28
280
     0
102
RTVSPost2010PropOp28
 70
     1
102
RTVSPost2010Prop29
280
     1
102
RTVSPost2010PropOp29
 70
     1
102
RTVSPost2010Prop30
280
     1
102
RTVSPost2010PropOp30
 70
     1
102
RTVSPost2010Prop31
280
     0
102
RTVSPost2010PropOp31
 70
     1
102
RTVSPost2010Prop32
280
     0
102
RTVSPost2010PropOp32
 70
     1
102
RTVSPost2010Prop33
280
     0
102
RTVSPost2010PropOp33
 70
     1
102
RTVSPost2010Prop34
280
     0
102
RTVSPost2010PropOp34
 70
     1
102
RTVSPost2010Prop35
280
     0
102
RTVSPost2010PropOp35
 70
     1
102
RTVSPost2010Prop36
280
     0
102
RTVSPost2010PropOp36
 70
     1
102
RTVSPost2010Prop37
 90
       50
102
RTVSPost2010PropOp37
 70
     1
102
RTVSPost2010Prop38
140
0.0
102
RTVSPost2010PropOp38
 70
     1
102
RTVSPost2010Prop39
140
1.0
102
RTVSPost2010PropOp39
 70
     1
102
RTVSPost2010Prop40
 90
        0
102
RTVSPost2010PropOp40
 70
     1
102
RTVSPost2010Prop41ColorIndex
 90
       18
102
RTVSPost2010Prop41ColorRGB
 90
        0
102
RTVSPost2010PropOp41
 70
     1
102
RTVSPost2010Prop42
 90
       50
102
RTVSPost2010PropOp42
 70
     1
102
RTVSPost2010Prop43
 90
        3
102
RTVSPost2010PropOp43
 70
     1
102
RTVSPost2010Prop44ColorIndex
 90
        5
102
RTVSPost2010Prop44ColorRGB
 90
      255
102
RTVSPost2010PropOp44
 70
     1
102
RTVSPost2010Prop45
280
     0
102
RTVSPost2010PropOp45
 70
     1
102
RTVSPost2010Prop46
 90
       50
102
RTVSPost2010PropOp46
 70
     1
102
RTVSPost2010Prop47
 90
       50
102
RTVSPost2010PropOp47
 70
     1
102
RTVSPost2010Prop48
 90
       50
102
RTVSPost2010PropOp48
 70
     1
102
RTVSPost2010Prop49
280
     0
102
RTVSPost2010PropOp49
 70
     1
102
RTVSPost2010Prop50
 90
       50
102
RTVSPost2010PropOp50
 70
     1
102
RTVSPost2010Prop51ColorIndex
 90
      256
102
RTVSPost2010Prop51ColorRGB
 90
-16777216
102
RTVSPost2010PropOp51
 70
     0
102
RTVSPost2010Prop52
140
1.0
102
RTVSPost2010PropOp52
 70
     0
102
RTVSPost2010Prop53
 90
        2
102
RTVSPost2010PropOp53
 70
     1
102
RTVSPost2010Prop54
  1
strokes_ogs.tif
102
RTVSPost2010PropOp54
 70
     1
102
RTVSPost2010Prop55
280
     0
102
RTVSPost2010PropOp55
 70
     1
102
RTVSPost2010Prop56
140
1.0
102
RTVSPost2010PropOp56
 70
     1
102
RTVSPost2010Prop57
140
1.0
102
RTVSPost2010PropOp57
 70
     1
102
RTVSPropertyOp0
 70
     1
102
RTVSPropertyOp1
 70
     1
102
RTVSPropertyOp2
 70
     1
102
RTVSPropertyOp3
 70
     1
102
RTVSPropertyOp4
 70
     1
102
RTVSPropertyOp5
 70
     1
102
RTVSPropertyOp6
 70
     1
102
RTVSPropertyOp7
 70
     1
102
RTVSPropertyOp8
 70
     1
102
RTVSPropertyOp9
 70
     1
102
RTVSPropertyOp10
 70
     1
102
RTVSPropertyOp11
 70
     1
102
RTVSPropertyOp12
 70
     1
102
RTVSPropertyOp13
 70
     1
102
RTVSPropertyOp14
 70
     1
102
RTVSPropertyOp15
 70
     1
102
RTVSPropertyOp16
 70
     1
102
RTVSPropertyOp17
 70
     1
102
RTVSPropertyOp18
 70
     1
102
RTVSPropertyOp19
 70
     1
102
RTVSPropertyOp20
 70
     1
102
RTVSPropertyOp21
 70
     1
102
RTVSPropertyOp22
 70
     1
102
RTVSPropertyOp23
 70
     1
102
RTVSPropertyOp24
 70
     1
102
RTVSPropertyOp25
 70
     1
102
RTVSPropertyOp26
 70
     1
102
RTVSPropertyOp27
 70
     1
102
RTVSPropertyOp28
 70
     1
102
RTVSPropertyOp29
 70
     1
102
RTVSPropertyOp30
 70
     1
102
RTVSPropertyOp31
 70
     1
102
RTVSPropertyOp32
 70
     1
102
RTVSPropertyOp33
 70
     1
102
RTVSPropertyOp34
 70
     1
102
RTVSPropertyOp35
 70
     1
102
RTVSPropertyOp36
 70
     1
102
RTVSPropertyOp37
 70
     1
102
RTVSPropertyOp38
 70
     1
102
RTVSPropertyOp39
 70
     1
102
RTVSPropertyOp40
 70
     1
102
RTVSPropertyOp41
 70
     1
102
RTVSPropertyOp42
 70
     1
102
RTVSPropertyOp43
 70
     1
102
RTVSPropertyOp44
 70
     1
102
RTVSPropertyOp45
 70
     1
102
RTVSPropertyOp46
 70
     1
102
RTVSPropertyOp47
 70
     1
102
RTVSPropertyOp48
 70
     1
102
RTVSPropertyOp49
 70
     1
102
RTVSPropertyOp50
 70
     1
102
RTVSPropertyOp51
 70
     0
102
RTVSPropertyOp52
 70
     0
102
RTVSPropertyOp53
 70
     1
102
RTVSPropertyOp54
 70
     1
102
RTVSPropertyOp55
 70
     1
102
RTVSPropertyOp56
 70
     1
102
RTVSPropertyOp57
 70
     1
102
RTVSPropertyOp58
 70
     1
102
RTVSPropertyOp59
 70
     1
102
RTVSPropertyOp60
 70
     1
102
RTVSPropertyOp61
 70
     1
102
RTVSPropertyOp62
 70
     1
  0
XRECORD
  5
11DA3
102
{ACAD_REACTORS
330
11DA2
102
}
330
11DA2
100
AcDbXrecord
280
     1
102
RTVSPost2010Prop28
280
     0
102
RTVSPost2010PropOp28
 70
     0
102
RTVSPost2010Prop29
280
     1
102
RTVSPost2010PropOp29
 70
     0
102
RTVSPost2010Prop30
280
     1
102
RTVSPost2010PropOp30
 70
     0
102
RTVSPost2010Prop31
280
     0
102
RTVSPost2010PropOp31
 70
     0
102
RTVSPost2010Prop32
280
     0
102
RTVSPost2010PropOp32
 70
     0
102
RTVSPost2010Prop33
280
     0
102
RTVSPost2010PropOp33
 70
     0
102
RTVSPost2010Prop34
280
     0
102
RTVSPost2010PropOp34
 70
     0
102
RTVSPost2010Prop35
280
     0
102
RTVSPost2010PropOp35
 70
     0
102
RTVSPost2010Prop36
280
     0
102
RTVSPost2010PropOp36
 70
     0
102
RTVSPost2010Prop37
 90
       50
102
RTVSPost2010PropOp37
 70
     0
102
RTVSPost2010Prop38
140
0.0
102
RTVSPost2010PropOp38
 70
     0
102
RTVSPost2010Prop39
140
1.0
102
RTVSPost2010PropOp39
 70
     0
102
RTVSPost2010Prop40
 90
        0
102
RTVSPost2010PropOp40
 70
     0
102
RTVSPost2010Prop41ColorIndex
 90
       18
102
RTVSPost2010Prop41ColorRGB
 90
        0
102
RTVSPost2010PropOp41
 70
     0
102
RTVSPost2010Prop42
 90
       50
102
RTVSPost2010PropOp42
 70
     0
102
RTVSPost2010Prop43
 90
        3
102
RTVSPost2010PropOp43
 70
     0
102
RTVSPost2010Prop44ColorIndex
 90
        5
102
RTVSPost2010Prop44ColorRGB
 90
      255
102
RTVSPost2010PropOp44
 70
     0
102
RTVSPost2010Prop45
280
     0
102
RTVSPost2010PropOp45
 70
     0
102
RTVSPost2010Prop46
 90
       50
102
RTVSPost2010PropOp46
 70
     0
102
RTVSPost2010Prop47
 90
       50
102
RTVSPost2010PropOp47
 70
     0
102
RTVSPost2010Prop48
 90
       50
102
RTVSPost2010PropOp48
 70
     0
102
RTVSPost2010Prop49
280
     0
102
RTVSPost2010PropOp49
 70
     0
102
RTVSPost2010Prop50
 90
       50
102
RTVSPost2010PropOp50
 70
     0
102
RTVSPost2010Prop51ColorIndex
 90
      256
102
RTVSPost2010Prop51ColorRGB
 90
-16777216
102
RTVSPost2010PropOp51
 70
     0
102
RTVSPost2010Prop52
140
1.0
102
RTVSPost2010PropOp52
 70
     0
102
RTVSPost2010Prop53
 90
        2
102
RTVSPost2010PropOp53
 70
     0
102
RTVSPost2010Prop54
  1
strokes_ogs.tif
102
RTVSPost2010PropOp54
 70
     0
102
RTVSPost2010Prop55
280
     0
102
RTVSPost2010PropOp55
 70
     0
102
RTVSPost2010Prop56
140
1.0
102
RTVSPost2010PropOp56
 70
     0
102
RTVSPost2010Prop57
140
1.0
102
RTVSPost2010PropOp57
 70
     0
102
RTVSPropertyOp0
 70
     0
102
RTVSPropertyOp1
 70
     0
102
RTVSPropertyOp2
 70
     0
102
RTVSPropertyOp3
 70
     0
102
RTVSPropertyOp4
 70
     0
102
RTVSPropertyOp5
 70
     0
102
RTVSPropertyOp6
 70
     0
102
RTVSPropertyOp7
 70
     0
102
RTVSPropertyOp8
 70
     0
102
RTVSPropertyOp9
 70
     0
102
RTVSPropertyOp10
 70
     0
102
RTVSPropertyOp11
 70
     0
102
RTVSPropertyOp12
 70
     0
102
RTVSPropertyOp13
 70
     0
102
RTVSPropertyOp14
 70
     2
102
RTVSPropertyOp15
 70
     0
102
RTVSPropertyOp16
 70
     0
102
RTVSPropertyOp17
 70
     0
102
RTVSPropertyOp18
 70
     0
102
RTVSPropertyOp19
 70
     0
102
RTVSPropertyOp20
 70
     0
102
RTVSPropertyOp21
 70
     0
102
RTVSPropertyOp22
 70
     0
102
RTVSPropertyOp23
 70
     0
102
RTVSPropertyOp24
 70
     0
102
RTVSPropertyOp25
 70
     0
102
RTVSPropertyOp26
 70
     0
102
RTVSPropertyOp27
 70
     0
102
RTVSPropertyOp28
 70
     0
102
RTVSPropertyOp29
 70
     0
102
RTVSPropertyOp30
 70
     0
102
RTVSPropertyOp31
 70
     0
102
RTVSPropertyOp32
 70
     0
102
RTVSPropertyOp33
 70
     0
102
RTVSPropertyOp34
 70
     0
102
RTVSPropertyOp35
 70
     0
102
RTVSPropertyOp36
 70
     0
102
RTVSPropertyOp37
 70
     0
102
RTVSPropertyOp38
 70
     0
102
RTVSPropertyOp39
 70
     0
102
RTVSPropertyOp40
 70
     0
102
RTVSPropertyOp41
 70
     0
102
RTVSPropertyOp42
 70
     0
102
RTVSPropertyOp43
 70
     0
102
RTVSPropertyOp44
 70
     0
102
RTVSPropertyOp45
 70
     0
102
RTVSPropertyOp46
 70
     0
102
RTVSPropertyOp47
 70
     0
102
RTVSPropertyOp48
 70
     0
102
RTVSPropertyOp49
 70
     0
102
RTVSPropertyOp50
 70
     0
102
RTVSPropertyOp51
 70
     0
102
RTVSPropertyOp52
 70
     0
102
RTVSPropertyOp53
 70
     0
102
RTVSPropertyOp54
 70
     0
102
RTVSPropertyOp55
 70
     0
102
RTVSPropertyOp56
 70
     0
102
RTVSPropertyOp57
 70
     0
102
RTVSPropertyOp58
 70
     0
102
RTVSPropertyOp59
 70
     0
102
RTVSPropertyOp60
 70
     0
102
RTVSPropertyOp61
 70
     0
102
RTVSPropertyOp62
 70
     0
  0
XRECORD
  5
11D89
102
{ACAD_REACTORS
330
11D88
102
}
330
11D88
100
AcDbXrecord
280
     1
102
RTVSPost2010Prop28
280
     0
102
RTVSPost2010PropOp28
 70
     1
102
RTVSPost2010Prop29
280
     1
102
RTVSPost2010PropOp29
 70
     1
102
RTVSPost2010Prop30
280
     1
102
RTVSPost2010PropOp30
 70
     1
102
RTVSPost2010Prop31
280
     0
102
RTVSPost2010PropOp31
 70
     1
102
RTVSPost2010Prop32
280
     0
102
RTVSPost2010PropOp32
 70
     1
102
RTVSPost2010Prop33
280
     0
102
RTVSPost2010PropOp33
 70
     1
102
RTVSPost2010Prop34
280
     0
102
RTVSPost2010PropOp34
 70
     1
102
RTVSPost2010Prop35
280
     0
102
RTVSPost2010PropOp35
 70
     1
102
RTVSPost2010Prop36
280
     0
102
RTVSPost2010PropOp36
 70
     1
102
RTVSPost2010Prop37
 90
       50
102
RTVSPost2010PropOp37
 70
     1
102
RTVSPost2010Prop38
140
0.0
102
RTVSPost2010PropOp38
 70
     1
102
RTVSPost2010Prop39
140
1.0
102
RTVSPost2010PropOp39
 70
     1
102
RTVSPost2010Prop40
 90
        0
102
RTVSPost2010PropOp40
 70
     1
102
RTVSPost2010Prop41ColorIndex
 90
       18
102
RTVSPost2010Prop41ColorRGB
 90
        0
102
RTVSPost2010PropOp41
 70
     1
102
RTVSPost2010Prop42
 90
       50
102
RTVSPost2010PropOp42
 70
     1
102
RTVSPost2010Prop43
 90
        3
102
RTVSPost2010PropOp43
 70
     1
102
RTVSPost2010Prop44ColorIndex
 90
        5
102
RTVSPost2010Prop44ColorRGB
 90
      255
102
RTVSPost2010PropOp44
 70
     1
102
RTVSPost2010Prop45
280
     0
102
RTVSPost2010PropOp45
 70
     1
102
RTVSPost2010Prop46
 90
       50
102
RTVSPost2010PropOp46
 70
     1
102
RTVSPost2010Prop47
 90
       50
102
RTVSPost2010PropOp47
 70
     1
102
RTVSPost2010Prop48
 90
       50
102
RTVSPost2010PropOp48
 70
     1
102
RTVSPost2010Prop49
280
     0
102
RTVSPost2010PropOp49
 70
     1
102
RTVSPost2010Prop50
 90
       50
102
RTVSPost2010PropOp50
 70
     1
102
RTVSPost2010Prop51ColorIndex
 90
      256
102
RTVSPost2010Prop51ColorRGB
 90
-16777216
102
RTVSPost2010PropOp51
 70
     0
102
RTVSPost2010Prop52
140
1.0
102
RTVSPost2010PropOp52
 70
     0
102
RTVSPost2010Prop53
 90
        2
102
RTVSPost2010PropOp53
 70
     1
102
RTVSPost2010Prop54
  1
strokes_ogs.tif
102
RTVSPost2010PropOp54
 70
     1
102
RTVSPost2010Prop55
280
     0
102
RTVSPost2010PropOp55
 70
     1
102
RTVSPost2010Prop56
140
1.0
102
RTVSPost2010PropOp56
 70
     1
102
RTVSPost2010Prop57
140
1.0
102
RTVSPost2010PropOp57
 70
     1
102
RTVSPropertyOp0
 70
     1
102
RTVSPropertyOp1
 70
     1
102
RTVSPropertyOp2
 70
     1
102
RTVSPropertyOp3
 70
     1
102
RTVSPropertyOp4
 70
     1
102
RTVSPropertyOp5
 70
     1
102
RTVSPropertyOp6
 70
     1
102
RTVSPropertyOp7
 70
     1
102
RTVSPropertyOp8
 70
     1
102
RTVSPropertyOp9
 70
     1
102
RTVSPropertyOp10
 70
     1
102
RTVSPropertyOp11
 70
     1
102
RTVSPropertyOp12
 70
     1
102
RTVSPropertyOp13
 70
     1
102
RTVSPropertyOp14
 70
     1
102
RTVSPropertyOp15
 70
     1
102
RTVSPropertyOp16
 70
     1
102
RTVSPropertyOp17
 70
     1
102
RTVSPropertyOp18
 70
     1
102
RTVSPropertyOp19
 70
     1
102
RTVSPropertyOp20
 70
     1
102
RTVSPropertyOp21
 70
     1
102
RTVSPropertyOp22
 70
     1
102
RTVSPropertyOp23
 70
     1
102
RTVSPropertyOp24
 70
     1
102
RTVSPropertyOp25
 70
     1
102
RTVSPropertyOp26
 70
     1
102
RTVSPropertyOp27
 70
     1
102
RTVSPropertyOp28
 70
     1
102
RTVSPropertyOp29
 70
     1
102
RTVSPropertyOp30
 70
     1
102
RTVSPropertyOp31
 70
     1
102
RTVSPropertyOp32
 70
     1
102
RTVSPropertyOp33
 70
     1
102
RTVSPropertyOp34
 70
     1
102
RTVSPropertyOp35
 70
     1
102
RTVSPropertyOp36
 70
     1
102
RTVSPropertyOp37
 70
     1
102
RTVSPropertyOp38
 70
     1
102
RTVSPropertyOp39
 70
     1
102
RTVSPropertyOp40
 70
     1
102
RTVSPropertyOp41
 70
     1
102
RTVSPropertyOp42
 70
     1
102
RTVSPropertyOp43
 70
     1
102
RTVSPropertyOp44
 70
     1
102
RTVSPropertyOp45
 70
     1
102
RTVSPropertyOp46
 70
     1
102
RTVSPropertyOp47
 70
     1
102
RTVSPropertyOp48
 70
     1
102
RTVSPropertyOp49
 70
     1
102
RTVSPropertyOp50
 70
     1
102
RTVSPropertyOp51
 70
     0
102
RTVSPropertyOp52
 70
     0
102
RTVSPropertyOp53
 70
     1
102
RTVSPropertyOp54
 70
     1
102
RTVSPropertyOp55
 70
     1
102
RTVSPropertyOp56
 70
     1
102
RTVSPropertyOp57
 70
     1
102
RTVSPropertyOp58
 70
     1
102
RTVSPropertyOp59
 70
     1
102
RTVSPropertyOp60
 70
     1
102
RTVSPropertyOp61
 70
     1
102
RTVSPropertyOp62
 70
     1
  0
XRECORD
  5
11D9F
102
{ACAD_REACTORS
330
11D9E
102
}
330
11D9E
100
AcDbXrecord
280
     1
102
RTVSPost2010Prop28
280
     0
102
RTVSPost2010PropOp28
 70
     1
102
RTVSPost2010Prop29
280
     1
102
RTVSPost2010PropOp29
 70
     1
102
RTVSPost2010Prop30
280
     1
102
RTVSPost2010PropOp30
 70
     1
102
RTVSPost2010Prop31
280
     0
102
RTVSPost2010PropOp31
 70
     1
102
RTVSPost2010Prop32
280
     0
102
RTVSPost2010PropOp32
 70
     1
102
RTVSPost2010Prop33
280
     0
102
RTVSPost2010PropOp33
 70
     1
102
RTVSPost2010Prop34
280
     0
102
RTVSPost2010PropOp34
 70
     1
102
RTVSPost2010Prop35
280
     0
102
RTVSPost2010PropOp35
 70
     1
102
RTVSPost2010Prop36
280
     0
102
RTVSPost2010PropOp36
 70
     1
102
RTVSPost2010Prop37
 90
       50
102
RTVSPost2010PropOp37
 70
     1
102
RTVSPost2010Prop38
140
0.0
102
RTVSPost2010PropOp38
 70
     1
102
RTVSPost2010Prop39
140
1.0
102
RTVSPost2010PropOp39
 70
     1
102
RTVSPost2010Prop40
 90
        0
102
RTVSPost2010PropOp40
 70
     1
102
RTVSPost2010Prop41ColorIndex
 90
       18
102
RTVSPost2010Prop41ColorRGB
 90
        0
102
RTVSPost2010PropOp41
 70
     1
102
RTVSPost2010Prop42
 90
       50
102
RTVSPost2010PropOp42
 70
     1
102
RTVSPost2010Prop43
 90
        3
102
RTVSPost2010PropOp43
 70
     1
102
RTVSPost2010Prop44ColorIndex
 90
        5
102
RTVSPost2010Prop44ColorRGB
 90
      255
102
RTVSPost2010PropOp44
 70
     1
102
RTVSPost2010Prop45
280
     0
102
RTVSPost2010PropOp45
 70
     1
102
RTVSPost2010Prop46
 90
       50
102
RTVSPost2010PropOp46
 70
     1
102
RTVSPost2010Prop47
 90
       50
102
RTVSPost2010PropOp47
 70
     1
102
RTVSPost2010Prop48
 90
       50
102
RTVSPost2010PropOp48
 70
     1
102
RTVSPost2010Prop49
280
     0
102
RTVSPost2010PropOp49
 70
     1
102
RTVSPost2010Prop50
 90
       50
102
RTVSPost2010PropOp50
 70
     1
102
RTVSPost2010Prop51ColorIndex
 90
      256
102
RTVSPost2010Prop51ColorRGB
 90
-16777216
102
RTVSPost2010PropOp51
 70
     0
102
RTVSPost2010Prop52
140
1.0
102
RTVSPost2010PropOp52
 70
     0
102
RTVSPost2010Prop53
 90
        2
102
RTVSPost2010PropOp53
 70
     1
102
RTVSPost2010Prop54
  1
strokes_ogs.tif
102
RTVSPost2010PropOp54
 70
     1
102
RTVSPost2010Prop55
280
     0
102
RTVSPost2010PropOp55
 70
     1
102
RTVSPost2010Prop56
140
1.0
102
RTVSPost2010PropOp56
 70
     1
102
RTVSPost2010Prop57
140
1.0
102
RTVSPost2010PropOp57
 70
     1
102
RTVSPropertyOp0
 70
     1
102
RTVSPropertyOp1
 70
     1
102
RTVSPropertyOp2
 70
     1
102
RTVSPropertyOp3
 70
     1
102
RTVSPropertyOp4
 70
     1
102
RTVSPropertyOp5
 70
     1
102
RTVSPropertyOp6
 70
     1
102
RTVSPropertyOp7
 70
     1
102
RTVSPropertyOp8
 70
     1
102
RTVSPropertyOp9
 70
     1
102
RTVSPropertyOp10
 70
     1
102
RTVSPropertyOp11
 70
     1
102
RTVSPropertyOp12
 70
     1
102
RTVSPropertyOp13
 70
     1
102
RTVSPropertyOp14
 70
     1
102
RTVSPropertyOp15
 70
     1
102
RTVSPropertyOp16
 70
     1
102
RTVSPropertyOp17
 70
     1
102
RTVSPropertyOp18
 70
     1
102
RTVSPropertyOp19
 70
     1
102
RTVSPropertyOp20
 70
     1
102
RTVSPropertyOp21
 70
     1
102
RTVSPropertyOp22
 70
     1
102
RTVSPropertyOp23
 70
     1
102
RTVSPropertyOp24
 70
     1
102
RTVSPropertyOp25
 70
     1
102
RTVSPropertyOp26
 70
     1
102
RTVSPropertyOp27
 70
     1
102
RTVSPropertyOp28
 70
     1
102
RTVSPropertyOp29
 70
     1
102
RTVSPropertyOp30
 70
     1
102
RTVSPropertyOp31
 70
     1
102
RTVSPropertyOp32
 70
     1
102
RTVSPropertyOp33
 70
     1
102
RTVSPropertyOp34
 70
     1
102
RTVSPropertyOp35
 70
     1
102
RTVSPropertyOp36
 70
     1
102
RTVSPropertyOp37
 70
     1
102
RTVSPropertyOp38
 70
     1
102
RTVSPropertyOp39
 70
     1
102
RTVSPropertyOp40
 70
     1
102
RTVSPropertyOp41
 70
     1
102
RTVSPropertyOp42
 70
     1
102
RTVSPropertyOp43
 70
     1
102
RTVSPropertyOp44
 70
     1
102
RTVSPropertyOp45
 70
     1
102
RTVSPropertyOp46
 70
     1
102
RTVSPropertyOp47
 70
     1
102
RTVSPropertyOp48
 70
     1
102
RTVSPropertyOp49
 70
     1
102
RTVSPropertyOp50
 70
     1
102
RTVSPropertyOp51
 70
     0
102
RTVSPropertyOp52
 70
     0
102
RTVSPropertyOp53
 70
     1
102
RTVSPropertyOp54
 70
     1
102
RTVSPropertyOp55
 70
     1
102
RTVSPropertyOp56
 70
     1
102
RTVSPropertyOp57
 70
     1
102
RTVSPropertyOp58
 70
     1
102
RTVSPropertyOp59
 70
     1
102
RTVSPropertyOp60
 70
     1
102
RTVSPropertyOp61
 70
     1
102
RTVSPropertyOp62
 70
     1
  0
XRECORD
  5
11D9D
102
{ACAD_REACTORS
330
11D9C
102
}
330
11D9C
100
AcDbXrecord
280
     1
102
RTVSPost2010Prop28
280
     0
102
RTVSPost2010PropOp28
 70
     1
102
RTVSPost2010Prop29
280
     1
102
RTVSPost2010PropOp29
 70
     1
102
RTVSPost2010Prop30
280
     1
102
RTVSPost2010PropOp30
 70
     1
102
RTVSPost2010Prop31
280
     0
102
RTVSPost2010PropOp31
 70
     1
102
RTVSPost2010Prop32
280
     0
102
RTVSPost2010PropOp32
 70
     1
102
RTVSPost2010Prop33
280
     0
102
RTVSPost2010PropOp33
 70
     1
102
RTVSPost2010Prop34
280
     0
102
RTVSPost2010PropOp34
 70
     1
102
RTVSPost2010Prop35
280
     0
102
RTVSPost2010PropOp35
 70
     1
102
RTVSPost2010Prop36
280
     0
102
RTVSPost2010PropOp36
 70
     1
102
RTVSPost2010Prop37
 90
       50
102
RTVSPost2010PropOp37
 70
     1
102
RTVSPost2010Prop38
140
0.0
102
RTVSPost2010PropOp38
 70
     1
102
RTVSPost2010Prop39
140
1.0
102
RTVSPost2010PropOp39
 70
     1
102
RTVSPost2010Prop40
 90
        0
102
RTVSPost2010PropOp40
 70
     1
102
RTVSPost2010Prop41ColorIndex
 90
       18
102
RTVSPost2010Prop41ColorRGB
 90
        0
102
RTVSPost2010PropOp41
 70
     1
102
RTVSPost2010Prop42
 90
       50
102
RTVSPost2010PropOp42
 70
     1
102
RTVSPost2010Prop43
 90
        3
102
RTVSPost2010PropOp43
 70
     1
102
RTVSPost2010Prop44ColorIndex
 90
        5
102
RTVSPost2010Prop44ColorRGB
 90
      255
102
RTVSPost2010PropOp44
 70
     1
102
RTVSPost2010Prop45
280
     0
102
RTVSPost2010PropOp45
 70
     1
102
RTVSPost2010Prop46
 90
       50
102
RTVSPost2010PropOp46
 70
     1
102
RTVSPost2010Prop47
 90
       50
102
RTVSPost2010PropOp47
 70
     1
102
RTVSPost2010Prop48
 90
       50
102
RTVSPost2010PropOp48
 70
     1
102
RTVSPost2010Prop49
280
     0
102
RTVSPost2010PropOp49
 70
     1
102
RTVSPost2010Prop50
 90
       50
102
RTVSPost2010PropOp50
 70
     1
102
RTVSPost2010Prop51ColorIndex
 90
      256
102
RTVSPost2010Prop51ColorRGB
 90
-16777216
102
RTVSPost2010PropOp51
 70
     0
102
RTVSPost2010Prop52
140
1.0
102
RTVSPost2010PropOp52
 70
     0
102
RTVSPost2010Prop53
 90
        2
102
RTVSPost2010PropOp53
 70
     1
102
RTVSPost2010Prop54
  1
strokes_ogs.tif
102
RTVSPost2010PropOp54
 70
     1
102
RTVSPost2010Prop55
280
     0
102
RTVSPost2010PropOp55
 70
     1
102
RTVSPost2010Prop56
140
1.0
102
RTVSPost2010PropOp56
 70
     1
102
RTVSPost2010Prop57
140
1.0
102
RTVSPost2010PropOp57
 70
     1
102
RTVSPropertyOp0
 70
     1
102
RTVSPropertyOp1
 70
     1
102
RTVSPropertyOp2
 70
     1
102
RTVSPropertyOp3
 70
     1
102
RTVSPropertyOp4
 70
     1
102
RTVSPropertyOp5
 70
     1
102
RTVSPropertyOp6
 70
     1
102
RTVSPropertyOp7
 70
     1
102
RTVSPropertyOp8
 70
     1
102
RTVSPropertyOp9
 70
     1
102
RTVSPropertyOp10
 70
     1
102
RTVSPropertyOp11
 70
     1
102
RTVSPropertyOp12
 70
     1
102
RTVSPropertyOp13
 70
     1
102
RTVSPropertyOp14
 70
     1
102
RTVSPropertyOp15
 70
     1
102
RTVSPropertyOp16
 70
     1
102
RTVSPropertyOp17
 70
     1
102
RTVSPropertyOp18
 70
     1
102
RTVSPropertyOp19
 70
     1
102
RTVSPropertyOp20
 70
     1
102
RTVSPropertyOp21
 70
     1
102
RTVSPropertyOp22
 70
     1
102
RTVSPropertyOp23
 70
     1
102
RTVSPropertyOp24
 70
     1
102
RTVSPropertyOp25
 70
     1
102
RTVSPropertyOp26
 70
     1
102
RTVSPropertyOp27
 70
     1
102
RTVSPropertyOp28
 70
     1
102
RTVSPropertyOp29
 70
     1
102
RTVSPropertyOp30
 70
     1
102
RTVSPropertyOp31
 70
     1
102
RTVSPropertyOp32
 70
     1
102
RTVSPropertyOp33
 70
     1
102
RTVSPropertyOp34
 70
     1
102
RTVSPropertyOp35
 70
     1
102
RTVSPropertyOp36
 70
     1
102
RTVSPropertyOp37
 70
     1
102
RTVSPropertyOp38
 70
     1
102
RTVSPropertyOp39
 70
     1
102
RTVSPropertyOp40
 70
     1
102
RTVSPropertyOp41
 70
     1
102
RTVSPropertyOp42
 70
     1
102
RTVSPropertyOp43
 70
     1
102
RTVSPropertyOp44
 70
     1
102
RTVSPropertyOp45
 70
     1
102
RTVSPropertyOp46
 70
     1
102
RTVSPropertyOp47
 70
     1
102
RTVSPropertyOp48
 70
     1
102
RTVSPropertyOp49
 70
     1
102
RTVSPropertyOp50
 70
     1
102
RTVSPropertyOp51
 70
     0
102
RTVSPropertyOp52
 70
     0
102
RTVSPropertyOp53
 70
     1
102
RTVSPropertyOp54
 70
     1
102
RTVSPropertyOp55
 70
     1
102
RTVSPropertyOp56
 70
     1
102
RTVSPropertyOp57
 70
     1
102
RTVSPropertyOp58
 70
     1
102
RTVSPropertyOp59
 70
     1
102
RTVSPropertyOp60
 70
     1
102
RTVSPropertyOp61
 70
     1
102
RTVSPropertyOp62
 70
     1
  0
XRECORD
  5
11D97
102
{ACAD_REACTORS
330
11D96
102
}
330
11D96
100
AcDbXrecord
280
     1
102
RTVSPost2010Prop28
280
     0
102
RTVSPost2010PropOp28
 70
     1
102
RTVSPost2010Prop29
280
     1
102
RTVSPost2010PropOp29
 70
     1
102
RTVSPost2010Prop30
280
     1
102
RTVSPost2010PropOp30
 70
     1
102
RTVSPost2010Prop31
280
     0
102
RTVSPost2010PropOp31
 70
     1
102
RTVSPost2010Prop32
280
     0
102
RTVSPost2010PropOp32
 70
     1
102
RTVSPost2010Prop33
280
     0
102
RTVSPost2010PropOp33
 70
     1
102
RTVSPost2010Prop34
280
     0
102
RTVSPost2010PropOp34
 70
     1
102
RTVSPost2010Prop35
280
     0
102
RTVSPost2010PropOp35
 70
     1
102
RTVSPost2010Prop36
280
     0
102
RTVSPost2010PropOp36
 70
     1
102
RTVSPost2010Prop37
 90
       50
102
RTVSPost2010PropOp37
 70
     1
102
RTVSPost2010Prop38
140
0.0
102
RTVSPost2010PropOp38
 70
     1
102
RTVSPost2010Prop39
140
1.0
102
RTVSPost2010PropOp39
 70
     1
102
RTVSPost2010Prop40
 90
        0
102
RTVSPost2010PropOp40
 70
     1
102
RTVSPost2010Prop41ColorIndex
 90
       18
102
RTVSPost2010Prop41ColorRGB
 90
        0
102
RTVSPost2010PropOp41
 70
     1
102
RTVSPost2010Prop42
 90
       50
102
RTVSPost2010PropOp42
 70
     1
102
RTVSPost2010Prop43
 90
        3
102
RTVSPost2010PropOp43
 70
     1
102
RTVSPost2010Prop44ColorIndex
 90
        5
102
RTVSPost2010Prop44ColorRGB
 90
      255
102
RTVSPost2010PropOp44
 70
     1
102
RTVSPost2010Prop45
280
     0
102
RTVSPost2010PropOp45
 70
     1
102
RTVSPost2010Prop46
 90
       50
102
RTVSPost2010PropOp46
 70
     1
102
RTVSPost2010Prop47
 90
       50
102
RTVSPost2010PropOp47
 70
     1
102
RTVSPost2010Prop48
 90
       50
102
RTVSPost2010PropOp48
 70
     1
102
RTVSPost2010Prop49
280
     0
102
RTVSPost2010PropOp49
 70
     1
102
RTVSPost2010Prop50
 90
       50
102
RTVSPost2010PropOp50
 70
     1
102
RTVSPost2010Prop51ColorIndex
 90
      256
102
RTVSPost2010Prop51ColorRGB
 90
-16777216
102
RTVSPost2010PropOp51
 70
     0
102
RTVSPost2010Prop52
140
1.0
102
RTVSPost2010PropOp52
 70
     0
102
RTVSPost2010Prop53
 90
        2
102
RTVSPost2010PropOp53
 70
     1
102
RTVSPost2010Prop54
  1
strokes_ogs.tif
102
RTVSPost2010PropOp54
 70
     1
102
RTVSPost2010Prop55
280
     0
102
RTVSPost2010PropOp55
 70
     1
102
RTVSPost2010Prop56
140
1.0
102
RTVSPost2010PropOp56
 70
     1
102
RTVSPost2010Prop57
140
1.0
102
RTVSPost2010PropOp57
 70
     1
102
RTVSPropertyOp0
 70
     1
102
RTVSPropertyOp1
 70
     1
102
RTVSPropertyOp2
 70
     1
102
RTVSPropertyOp3
 70
     1
102
RTVSPropertyOp4
 70
     1
102
RTVSPropertyOp5
 70
     1
102
RTVSPropertyOp6
 70
     1
102
RTVSPropertyOp7
 70
     1
102
RTVSPropertyOp8
 70
     1
102
RTVSPropertyOp9
 70
     1
102
RTVSPropertyOp10
 70
     1
102
RTVSPropertyOp11
 70
     1
102
RTVSPropertyOp12
 70
     1
102
RTVSPropertyOp13
 70
     1
102
RTVSPropertyOp14
 70
     1
102
RTVSPropertyOp15
 70
     1
102
RTVSPropertyOp16
 70
     1
102
RTVSPropertyOp17
 70
     1
102
RTVSPropertyOp18
 70
     1
102
RTVSPropertyOp19
 70
     1
102
RTVSPropertyOp20
 70
     1
102
RTVSPropertyOp21
 70
     1
102
RTVSPropertyOp22
 70
     1
102
RTVSPropertyOp23
 70
     1
102
RTVSPropertyOp24
 70
     1
102
RTVSPropertyOp25
 70
     1
102
RTVSPropertyOp26
 70
     1
102
RTVSPropertyOp27
 70
     1
102
RTVSPropertyOp28
 70
     1
102
RTVSPropertyOp29
 70
     1
102
RTVSPropertyOp30
 70
     1
102
RTVSPropertyOp31
 70
     1
102
RTVSPropertyOp32
 70
     1
102
RTVSPropertyOp33
 70
     1
102
RTVSPropertyOp34
 70
     1
102
RTVSPropertyOp35
 70
     1
102
RTVSPropertyOp36
 70
     1
102
RTVSPropertyOp37
 70
     1
102
RTVSPropertyOp38
 70
     1
102
RTVSPropertyOp39
 70
     1
102
RTVSPropertyOp40
 70
     1
102
RTVSPropertyOp41
 70
     1
102
RTVSPropertyOp42
 70
     1
102
RTVSPropertyOp43
 70
     1
102
RTVSPropertyOp44
 70
     1
102
RTVSPropertyOp45
 70
     1
102
RTVSPropertyOp46
 70
     1
102
RTVSPropertyOp47
 70
     1
102
RTVSPropertyOp48
 70
     1
102
RTVSPropertyOp49
 70
     1
102
RTVSPropertyOp50
 70
     1
102
RTVSPropertyOp51
 70
     0
102
RTVSPropertyOp52
 70
     0
102
RTVSPropertyOp53
 70
     1
102
RTVSPropertyOp54
 70
     1
102
RTVSPropertyOp55
 70
     1
102
RTVSPropertyOp56
 70
     1
102
RTVSPropertyOp57
 70
     1
102
RTVSPropertyOp58
 70
     1
102
RTVSPropertyOp59
 70
     1
102
RTVSPropertyOp60
 70
     1
102
RTVSPropertyOp61
 70
     1
102
RTVSPropertyOp62
 70
     1
  0
XRECORD
  5
11D99
102
{ACAD_REACTORS
330
11D98
102
}
330
11D98
100
AcDbXrecord
280
     1
102
RTVSPost2010Prop28
280
     0
102
RTVSPost2010PropOp28
 70
     1
102
RTVSPost2010Prop29
280
     1
102
RTVSPost2010PropOp29
 70
     1
102
RTVSPost2010Prop30
280
     1
102
RTVSPost2010PropOp30
 70
     1
102
RTVSPost2010Prop31
280
     0
102
RTVSPost2010PropOp31
 70
     1
102
RTVSPost2010Prop32
280
     0
102
RTVSPost2010PropOp32
 70
     1
102
RTVSPost2010Prop33
280
     0
102
RTVSPost2010PropOp33
 70
     1
102
RTVSPost2010Prop34
280
     0
102
RTVSPost2010PropOp34
 70
     1
102
RTVSPost2010Prop35
280
     0
102
RTVSPost2010PropOp35
 70
     1
102
RTVSPost2010Prop36
280
     0
102
RTVSPost2010PropOp36
 70
     1
102
RTVSPost2010Prop37
 90
       50
102
RTVSPost2010PropOp37
 70
     1
102
RTVSPost2010Prop38
140
0.0
102
RTVSPost2010PropOp38
 70
     1
102
RTVSPost2010Prop39
140
1.0
102
RTVSPost2010PropOp39
 70
     1
102
RTVSPost2010Prop40
 90
        0
102
RTVSPost2010PropOp40
 70
     1
102
RTVSPost2010Prop41ColorIndex
 90
       18
102
RTVSPost2010Prop41ColorRGB
 90
        0
102
RTVSPost2010PropOp41
 70
     1
102
RTVSPost2010Prop42
 90
       50
102
RTVSPost2010PropOp42
 70
     1
102
RTVSPost2010Prop43
 90
        3
102
RTVSPost2010PropOp43
 70
     1
102
RTVSPost2010Prop44ColorIndex
 90
        5
102
RTVSPost2010Prop44ColorRGB
 90
      255
102
RTVSPost2010PropOp44
 70
     1
102
RTVSPost2010Prop45
280
     0
102
RTVSPost2010PropOp45
 70
     1
102
RTVSPost2010Prop46
 90
       50
102
RTVSPost2010PropOp46
 70
     1
102
RTVSPost2010Prop47
 90
       50
102
RTVSPost2010PropOp47
 70
     1
102
RTVSPost2010Prop48
 90
       50
102
RTVSPost2010PropOp48
 70
     1
102
RTVSPost2010Prop49
280
     0
102
RTVSPost2010PropOp49
 70
     1
102
RTVSPost2010Prop50
 90
       50
102
RTVSPost2010PropOp50
 70
     1
102
RTVSPost2010Prop51ColorIndex
 90
      256
102
RTVSPost2010Prop51ColorRGB
 90
-16777216
102
RTVSPost2010PropOp51
 70
     0
102
RTVSPost2010Prop52
140
1.0
102
RTVSPost2010PropOp52
 70
     0
102
RTVSPost2010Prop53
 90
        2
102
RTVSPost2010PropOp53
 70
     1
102
RTVSPost2010Prop54
  1
strokes_ogs.tif
102
RTVSPost2010PropOp54
 70
     1
102
RTVSPost2010Prop55
280
     0
102
RTVSPost2010PropOp55
 70
     1
102
RTVSPost2010Prop56
140
1.0
102
RTVSPost2010PropOp56
 70
     1
102
RTVSPost2010Prop57
140
1.0
102
RTVSPost2010PropOp57
 70
     1
102
RTVSPropertyOp0
 70
     1
102
RTVSPropertyOp1
 70
     1
102
RTVSPropertyOp2
 70
     1
102
RTVSPropertyOp3
 70
     1
102
RTVSPropertyOp4
 70
     1
102
RTVSPropertyOp5
 70
     1
102
RTVSPropertyOp6
 70
     1
102
RTVSPropertyOp7
 70
     1
102
RTVSPropertyOp8
 70
     1
102
RTVSPropertyOp9
 70
     1
102
RTVSPropertyOp10
 70
     1
102
RTVSPropertyOp11
 70
     1
102
RTVSPropertyOp12
 70
     1
102
RTVSPropertyOp13
 70
     1
102
RTVSPropertyOp14
 70
     1
102
RTVSPropertyOp15
 70
     1
102
RTVSPropertyOp16
 70
     1
102
RTVSPropertyOp17
 70
     1
102
RTVSPropertyOp18
 70
     1
102
RTVSPropertyOp19
 70
     1
102
RTVSPropertyOp20
 70
     1
102
RTVSPropertyOp21
 70
     1
102
RTVSPropertyOp22
 70
     1
102
RTVSPropertyOp23
 70
     1
102
RTVSPropertyOp24
 70
     1
102
RTVSPropertyOp25
 70
     1
102
RTVSPropertyOp26
 70
     1
102
RTVSPropertyOp27
 70
     1
102
RTVSPropertyOp28
 70
     1
102
RTVSPropertyOp29
 70
     1
102
RTVSPropertyOp30
 70
     1
102
RTVSPropertyOp31
 70
     1
102
RTVSPropertyOp32
 70
     1
102
RTVSPropertyOp33
 70
     1
102
RTVSPropertyOp34
 70
     1
102
RTVSPropertyOp35
 70
     1
102
RTVSPropertyOp36
 70
     1
102
RTVSPropertyOp37
 70
     1
102
RTVSPropertyOp38
 70
     1
102
RTVSPropertyOp39
 70
     1
102
RTVSPropertyOp40
 70
     1
102
RTVSPropertyOp41
 70
     1
102
RTVSPropertyOp42
 70
     1
102
RTVSPropertyOp43
 70
     1
102
RTVSPropertyOp44
 70
     1
102
RTVSPropertyOp45
 70
     1
102
RTVSPropertyOp46
 70
     1
102
RTVSPropertyOp47
 70
     1
102
RTVSPropertyOp48
 70
     1
102
RTVSPropertyOp49
 70
     1
102
RTVSPropertyOp50
 70
     1
102
RTVSPropertyOp51
 70
     0
102
RTVSPropertyOp52
 70
     0
102
RTVSPropertyOp53
 70
     1
102
RTVSPropertyOp54
 70
     1
102
RTVSPropertyOp55
 70
     1
102
RTVSPropertyOp56
 70
     1
102
RTVSPropertyOp57
 70
     1
102
RTVSPropertyOp58
 70
     1
102
RTVSPropertyOp59
 70
     1
102
RTVSPropertyOp60
 70
     1
102
RTVSPropertyOp61
 70
     1
102
RTVSPropertyOp62
 70
     1
  0
XRECORD
  5
11D8F
102
{ACAD_REACTORS
330
11D8E
102
}
330
11D8E
100
AcDbXrecord
280
     1
102
RTVSPost2010Prop28
280
     0
102
RTVSPost2010PropOp28
 70
     1
102
RTVSPost2010Prop29
280
     1
102
RTVSPost2010PropOp29
 70
     1
102
RTVSPost2010Prop30
280
     1
102
RTVSPost2010PropOp30
 70
     1
102
RTVSPost2010Prop31
280
     0
102
RTVSPost2010PropOp31
 70
     1
102
RTVSPost2010Prop32
280
     0
102
RTVSPost2010PropOp32
 70
     1
102
RTVSPost2010Prop33
280
     0
102
RTVSPost2010PropOp33
 70
     1
102
RTVSPost2010Prop34
280
     0
102
RTVSPost2010PropOp34
 70
     1
102
RTVSPost2010Prop35
280
     0
102
RTVSPost2010PropOp35
 70
     1
102
RTVSPost2010Prop36
280
     0
102
RTVSPost2010PropOp36
 70
     1
102
RTVSPost2010Prop37
 90
       50
102
RTVSPost2010PropOp37
 70
     1
102
RTVSPost2010Prop38
140
0.0
102
RTVSPost2010PropOp38
 70
     1
102
RTVSPost2010Prop39
140
1.0
102
RTVSPost2010PropOp39
 70
     1
102
RTVSPost2010Prop40
 90
        0
102
RTVSPost2010PropOp40
 70
     1
102
RTVSPost2010Prop41ColorIndex
 90
       18
102
RTVSPost2010Prop41ColorRGB
 90
        0
102
RTVSPost2010PropOp41
 70
     1
102
RTVSPost2010Prop42
 90
       50
102
RTVSPost2010PropOp42
 70
     1
102
RTVSPost2010Prop43
 90
        3
102
RTVSPost2010PropOp43
 70
     1
102
RTVSPost2010Prop44ColorIndex
 90
        5
102
RTVSPost2010Prop44ColorRGB
 90
      255
102
RTVSPost2010PropOp44
 70
     1
102
RTVSPost2010Prop45
280
     0
102
RTVSPost2010PropOp45
 70
     1
102
RTVSPost2010Prop46
 90
       50
102
RTVSPost2010PropOp46
 70
     1
102
RTVSPost2010Prop47
 90
       50
102
RTVSPost2010PropOp47
 70
     1
102
RTVSPost2010Prop48
 90
       50
102
RTVSPost2010PropOp48
 70
     1
102
RTVSPost2010Prop49
280
     0
102
RTVSPost2010PropOp49
 70
     1
102
RTVSPost2010Prop50
 90
       50
102
RTVSPost2010PropOp50
 70
     1
102
RTVSPost2010Prop51ColorIndex
 90
      256
102
RTVSPost2010Prop51ColorRGB
 90
-16777216
102
RTVSPost2010PropOp51
 70
     0
102
RTVSPost2010Prop52
140
1.0
102
RTVSPost2010PropOp52
 70
     0
102
RTVSPost2010Prop53
 90
        2
102
RTVSPost2010PropOp53
 70
     1
102
RTVSPost2010Prop54
  1
strokes_ogs.tif
102
RTVSPost2010PropOp54
 70
     1
102
RTVSPost2010Prop55
280
     0
102
RTVSPost2010PropOp55
 70
     1
102
RTVSPost2010Prop56
140
1.0
102
RTVSPost2010PropOp56
 70
     1
102
RTVSPost2010Prop57
140
1.0
102
RTVSPost2010PropOp57
 70
     1
102
RTVSPropertyOp0
 70
     1
102
RTVSPropertyOp1
 70
     1
102
RTVSPropertyOp2
 70
     1
102
RTVSPropertyOp3
 70
     1
102
RTVSPropertyOp4
 70
     1
102
RTVSPropertyOp5
 70
     1
102
RTVSPropertyOp6
 70
     1
102
RTVSPropertyOp7
 70
     1
102
RTVSPropertyOp8
 70
     1
102
RTVSPropertyOp9
 70
     1
102
RTVSPropertyOp10
 70
     1
102
RTVSPropertyOp11
 70
     1
102
RTVSPropertyOp12
 70
     1
102
RTVSPropertyOp13
 70
     1
102
RTVSPropertyOp14
 70
     1
102
RTVSPropertyOp15
 70
     1
102
RTVSPropertyOp16
 70
     1
102
RTVSPropertyOp17
 70
     1
102
RTVSPropertyOp18
 70
     1
102
RTVSPropertyOp19
 70
     1
102
RTVSPropertyOp20
 70
     1
102
RTVSPropertyOp21
 70
     1
102
RTVSPropertyOp22
 70
     1
102
RTVSPropertyOp23
 70
     1
102
RTVSPropertyOp24
 70
     1
102
RTVSPropertyOp25
 70
     1
102
RTVSPropertyOp26
 70
     1
102
RTVSPropertyOp27
 70
     1
102
RTVSPropertyOp28
 70
     1
102
RTVSPropertyOp29
 70
     1
102
RTVSPropertyOp30
 70
     1
102
RTVSPropertyOp31
 70
     1
102
RTVSPropertyOp32
 70
     1
102
RTVSPropertyOp33
 70
     1
102
RTVSPropertyOp34
 70
     1
102
RTVSPropertyOp35
 70
     1
102
RTVSPropertyOp36
 70
     1
102
RTVSPropertyOp37
 70
     1
102
RTVSPropertyOp38
 70
     1
102
RTVSPropertyOp39
 70
     1
102
RTVSPropertyOp40
 70
     1
102
RTVSPropertyOp41
 70
     1
102
RTVSPropertyOp42
 70
     1
102
RTVSPropertyOp43
 70
     1
102
RTVSPropertyOp44
 70
     1
102
RTVSPropertyOp45
 70
     1
102
RTVSPropertyOp46
 70
     1
102
RTVSPropertyOp47
 70
     1
102
RTVSPropertyOp48
 70
     1
102
RTVSPropertyOp49
 70
     1
102
RTVSPropertyOp50
 70
     1
102
RTVSPropertyOp51
 70
     0
102
RTVSPropertyOp52
 70
     0
102
RTVSPropertyOp53
 70
     1
102
RTVSPropertyOp54
 70
     1
102
RTVSPropertyOp55
 70
     1
102
RTVSPropertyOp56
 70
     1
102
RTVSPropertyOp57
 70
     1
102
RTVSPropertyOp58
 70
     1
102
RTVSPropertyOp59
 70
     1
102
RTVSPropertyOp60
 70
     1
102
RTVSPropertyOp61
 70
     1
102
RTVSPropertyOp62
 70
     1
  0
XRECORD
  5
11D83
102
{ACAD_REACTORS
330
11D82
102
}
330
11D82
100
AcDbXrecord
280
     1
102
RTVSPost2010Prop28
280
     0
102
RTVSPost2010PropOp28
 70
     1
102
RTVSPost2010Prop29
280
     1
102
RTVSPost2010PropOp29
 70
     1
102
RTVSPost2010Prop30
280
     1
102
RTVSPost2010PropOp30
 70
     1
102
RTVSPost2010Prop31
280
     0
102
RTVSPost2010PropOp31
 70
     1
102
RTVSPost2010Prop32
280
     0
102
RTVSPost2010PropOp32
 70
     1
102
RTVSPost2010Prop33
280
     0
102
RTVSPost2010PropOp33
 70
     1
102
RTVSPost2010Prop34
280
     0
102
RTVSPost2010PropOp34
 70
     1
102
RTVSPost2010Prop35
280
     0
102
RTVSPost2010PropOp35
 70
     1
102
RTVSPost2010Prop36
280
     0
102
RTVSPost2010PropOp36
 70
     1
102
RTVSPost2010Prop37
 90
       50
102
RTVSPost2010PropOp37
 70
     1
102
RTVSPost2010Prop38
140
0.0
102
RTVSPost2010PropOp38
 70
     1
102
RTVSPost2010Prop39
140
1.0
102
RTVSPost2010PropOp39
 70
     1
102
RTVSPost2010Prop40
 90
        0
102
RTVSPost2010PropOp40
 70
     1
102
RTVSPost2010Prop41ColorIndex
 90
       18
102
RTVSPost2010Prop41ColorRGB
 90
        0
102
RTVSPost2010PropOp41
 70
     1
102
RTVSPost2010Prop42
 90
       50
102
RTVSPost2010PropOp42
 70
     1
102
RTVSPost2010Prop43
 90
        3
102
RTVSPost2010PropOp43
 70
     1
102
RTVSPost2010Prop44ColorIndex
 90
        5
102
RTVSPost2010Prop44ColorRGB
 90
      255
102
RTVSPost2010PropOp44
 70
     1
102
RTVSPost2010Prop45
280
     0
102
RTVSPost2010PropOp45
 70
     1
102
RTVSPost2010Prop46
 90
       50
102
RTVSPost2010PropOp46
 70
     1
102
RTVSPost2010Prop47
 90
       50
102
RTVSPost2010PropOp47
 70
     1
102
RTVSPost2010Prop48
 90
       50
102
RTVSPost2010PropOp48
 70
     1
102
RTVSPost2010Prop49
280
     0
102
RTVSPost2010PropOp49
 70
     1
102
RTVSPost2010Prop50
 90
       50
102
RTVSPost2010PropOp50
 70
     1
102
RTVSPost2010Prop51ColorIndex
 90
      256
102
RTVSPost2010Prop51ColorRGB
 90
-16777216
102
RTVSPost2010PropOp51
 70
     0
102
RTVSPost2010Prop52
140
1.0
102
RTVSPost2010PropOp52
 70
     0
102
RTVSPost2010Prop53
 90
        2
102
RTVSPost2010PropOp53
 70
     1
102
RTVSPost2010Prop54
  1
strokes_ogs.tif
102
RTVSPost2010PropOp54
 70
     1
102
RTVSPost2010Prop55
280
     0
102
RTVSPost2010PropOp55
 70
     1
102
RTVSPost2010Prop56
140
1.0
102
RTVSPost2010PropOp56
 70
     1
102
RTVSPost2010Prop57
140
1.0
102
RTVSPost2010PropOp57
 70
     1
102
RTVSPropertyOp0
 70
     1
102
RTVSPropertyOp1
 70
     1
102
RTVSPropertyOp2
 70
     1
102
RTVSPropertyOp3
 70
     1
102
RTVSPropertyOp4
 70
     1
102
RTVSPropertyOp5
 70
     1
102
RTVSPropertyOp6
 70
     1
102
RTVSPropertyOp7
 70
     1
102
RTVSPropertyOp8
 70
     1
102
RTVSPropertyOp9
 70
     1
102
RTVSPropertyOp10
 70
     1
102
RTVSPropertyOp11
 70
     1
102
RTVSPropertyOp12
 70
     1
102
RTVSPropertyOp13
 70
     1
102
RTVSPropertyOp14
 70
     1
102
RTVSPropertyOp15
 70
     1
102
RTVSPropertyOp16
 70
     1
102
RTVSPropertyOp17
 70
     1
102
RTVSPropertyOp18
 70
     1
102
RTVSPropertyOp19
 70
     1
102
RTVSPropertyOp20
 70
     1
102
RTVSPropertyOp21
 70
     1
102
RTVSPropertyOp22
 70
     1
102
RTVSPropertyOp23
 70
     1
102
RTVSPropertyOp24
 70
     1
102
RTVSPropertyOp25
 70
     1
102
RTVSPropertyOp26
 70
     1
102
RTVSPropertyOp27
 70
     1
102
RTVSPropertyOp28
 70
     1
102
RTVSPropertyOp29
 70
     1
102
RTVSPropertyOp30
 70
     1
102
RTVSPropertyOp31
 70
     1
102
RTVSPropertyOp32
 70
     1
102
RTVSPropertyOp33
 70
     1
102
RTVSPropertyOp34
 70
     1
102
RTVSPropertyOp35
 70
     1
102
RTVSPropertyOp36
 70
     1
102
RTVSPropertyOp37
 70
     1
102
RTVSPropertyOp38
 70
     1
102
RTVSPropertyOp39
 70
     1
102
RTVSPropertyOp40
 70
     1
102
RTVSPropertyOp41
 70
     1
102
RTVSPropertyOp42
 70
     1
102
RTVSPropertyOp43
 70
     1
102
RTVSPropertyOp44
 70
     1
102
RTVSPropertyOp45
 70
     1
102
RTVSPropertyOp46
 70
     1
102
RTVSPropertyOp47
 70
     1
102
RTVSPropertyOp48
 70
     1
102
RTVSPropertyOp49
 70
     1
102
RTVSPropertyOp50
 70
     1
102
RTVSPropertyOp51
 70
     0
102
RTVSPropertyOp52
 70
     0
102
RTVSPropertyOp53
 70
     1
102
RTVSPropertyOp54
 70
     1
102
RTVSPropertyOp55
 70
     1
102
RTVSPropertyOp56
 70
     1
102
RTVSPropertyOp57
 70
     1
102
RTVSPropertyOp58
 70
     1
102
RTVSPropertyOp59
 70
     1
102
RTVSPropertyOp60
 70
     1
102
RTVSPropertyOp61
 70
     1
102
RTVSPropertyOp62
 70
     1
  0
XRECORD
  5
11D9B
102
{ACAD_REACTORS
330
11D9A
102
}
330
11D9A
100
AcDbXrecord
280
     1
102
RTVSPost2010Prop28
280
     0
102
RTVSPost2010PropOp28
 70
     1
102
RTVSPost2010Prop29
280
     1
102
RTVSPost2010PropOp29
 70
     1
102
RTVSPost2010Prop30
280
     1
102
RTVSPost2010PropOp30
 70
     1
102
RTVSPost2010Prop31
280
     0
102
RTVSPost2010PropOp31
 70
     1
102
RTVSPost2010Prop32
280
     0
102
RTVSPost2010PropOp32
 70
     1
102
RTVSPost2010Prop33
280
     0
102
RTVSPost2010PropOp33
 70
     1
102
RTVSPost2010Prop34
280
     0
102
RTVSPost2010PropOp34
 70
     1
102
RTVSPost2010Prop35
280
     0
102
RTVSPost2010PropOp35
 70
     1
102
RTVSPost2010Prop36
280
     0
102
RTVSPost2010PropOp36
 70
     1
102
RTVSPost2010Prop37
 90
       50
102
RTVSPost2010PropOp37
 70
     1
102
RTVSPost2010Prop38
140
0.0
102
RTVSPost2010PropOp38
 70
     1
102
RTVSPost2010Prop39
140
1.0
102
RTVSPost2010PropOp39
 70
     1
102
RTVSPost2010Prop40
 90
        0
102
RTVSPost2010PropOp40
 70
     1
102
RTVSPost2010Prop41ColorIndex
 90
       18
102
RTVSPost2010Prop41ColorRGB
 90
        0
102
RTVSPost2010PropOp41
 70
     1
102
RTVSPost2010Prop42
 90
       50
102
RTVSPost2010PropOp42
 70
     1
102
RTVSPost2010Prop43
 90
        3
102
RTVSPost2010PropOp43
 70
     1
102
RTVSPost2010Prop44ColorIndex
 90
        5
102
RTVSPost2010Prop44ColorRGB
 90
      255
102
RTVSPost2010PropOp44
 70
     1
102
RTVSPost2010Prop45
280
     0
102
RTVSPost2010PropOp45
 70
     1
102
RTVSPost2010Prop46
 90
       50
102
RTVSPost2010PropOp46
 70
     1
102
RTVSPost2010Prop47
 90
       50
102
RTVSPost2010PropOp47
 70
     1
102
RTVSPost2010Prop48
 90
       50
102
RTVSPost2010PropOp48
 70
     1
102
RTVSPost2010Prop49
280
     0
102
RTVSPost2010PropOp49
 70
     1
102
RTVSPost2010Prop50
 90
       50
102
RTVSPost2010PropOp50
 70
     1
102
RTVSPost2010Prop51ColorIndex
 90
      256
102
RTVSPost2010Prop51ColorRGB
 90
-16777216
102
RTVSPost2010PropOp51
 70
     0
102
RTVSPost2010Prop52
140
1.0
102
RTVSPost2010PropOp52
 70
     0
102
RTVSPost2010Prop53
 90
        2
102
RTVSPost2010PropOp53
 70
     1
102
RTVSPost2010Prop54
  1
strokes_ogs.tif
102
RTVSPost2010PropOp54
 70
     1
102
RTVSPost2010Prop55
280
     0
102
RTVSPost2010PropOp55
 70
     1
102
RTVSPost2010Prop56
140
1.0
102
RTVSPost2010PropOp56
 70
     1
102
RTVSPost2010Prop57
140
1.0
102
RTVSPost2010PropOp57
 70
     1
102
RTVSPropertyOp0
 70
     1
102
RTVSPropertyOp1
 70
     1
102
RTVSPropertyOp2
 70
     1
102
RTVSPropertyOp3
 70
     1
102
RTVSPropertyOp4
 70
     1
102
RTVSPropertyOp5
 70
     1
102
RTVSPropertyOp6
 70
     1
102
RTVSPropertyOp7
 70
     1
102
RTVSPropertyOp8
 70
     1
102
RTVSPropertyOp9
 70
     1
102
RTVSPropertyOp10
 70
     1
102
RTVSPropertyOp11
 70
     1
102
RTVSPropertyOp12
 70
     1
102
RTVSPropertyOp13
 70
     1
102
RTVSPropertyOp14
 70
     1
102
RTVSPropertyOp15
 70
     1
102
RTVSPropertyOp16
 70
     1
102
RTVSPropertyOp17
 70
     1
102
RTVSPropertyOp18
 70
     1
102
RTVSPropertyOp19
 70
     1
102
RTVSPropertyOp20
 70
     1
102
RTVSPropertyOp21
 70
     1
102
RTVSPropertyOp22
 70
     1
102
RTVSPropertyOp23
 70
     1
102
RTVSPropertyOp24
 70
     1
102
RTVSPropertyOp25
 70
     1
102
RTVSPropertyOp26
 70
     1
102
RTVSPropertyOp27
 70
     1
102
RTVSPropertyOp28
 70
     1
102
RTVSPropertyOp29
 70
     1
102
RTVSPropertyOp30
 70
     1
102
RTVSPropertyOp31
 70
     1
102
RTVSPropertyOp32
 70
     1
102
RTVSPropertyOp33
 70
     1
102
RTVSPropertyOp34
 70
     1
102
RTVSPropertyOp35
 70
     1
102
RTVSPropertyOp36
 70
     1
102
RTVSPropertyOp37
 70
     1
102
RTVSPropertyOp38
 70
     1
102
RTVSPropertyOp39
 70
     1
102
RTVSPropertyOp40
 70
     1
102
RTVSPropertyOp41
 70
     1
102
RTVSPropertyOp42
 70
     1
102
RTVSPropertyOp43
 70
     1
102
RTVSPropertyOp44
 70
     1
102
RTVSPropertyOp45
 70
     1
102
RTVSPropertyOp46
 70
     1
102
RTVSPropertyOp47
 70
     1
102
RTVSPropertyOp48
 70
     1
102
RTVSPropertyOp49
 70
     1
102
RTVSPropertyOp50
 70
     1
102
RTVSPropertyOp51
 70
     0
102
RTVSPropertyOp52
 70
     0
102
RTVSPropertyOp53
 70
     1
102
RTVSPropertyOp54
 70
     1
102
RTVSPropertyOp55
 70
     1
102
RTVSPropertyOp56
 70
     1
102
RTVSPropertyOp57
 70
     1
102
RTVSPropertyOp58
 70
     1
102
RTVSPropertyOp59
 70
     1
102
RTVSPropertyOp60
 70
     1
102
RTVSPropertyOp61
 70
     1
102
RTVSPropertyOp62
 70
     1
  0
ENDSEC
  0
EOF
